<?xml version="1.0" standalone="no"?>
<!DOCTYPE svg PUBLIC "-//W3C//DTD SVG 1.1//EN" "http://www.w3.org/Graphics/SVG/1.1/DTD/svg11.dtd" >
<svg xmlns="http://www.w3.org/2000/svg">
<metadata></metadata>
<defs>
<font id="theinhardtmedium" horiz-adv-x="1208" >
<font-face units-per-em="2048" ascent="1642" descent="-406" />
<missing-glyph horiz-adv-x="409" />
<glyph unicode="&#xfb01;" horiz-adv-x="1183" d="M41 793v182h172v115q0 110 29 182q31 70 99.5 102.5t184.5 32.5q66 0 154 -10v-189q-54 4 -84 4q-54 0 -83.5 -8t-45.5 -30q-21 -30 -21 -103v-96h234v-182h-234v-793h-233v793h-172zM821 0v973h234v-973h-234zM821 1155v238h234v-238h-234z" />
<glyph unicode="&#xfb02;" horiz-adv-x="1191" d="M41 793v182h172v115q0 110 29 182q31 70 99.5 102.5t184.5 32.5q66 0 154 -10v-189q-54 4 -84 4q-54 0 -83.5 -8t-45.5 -30q-21 -30 -21 -103v-96h234v-182h-234v-793h-233v793h-172zM821 0v1393h234v-1393h-234z" />
<glyph horiz-adv-x="2048" />
<glyph horiz-adv-x="2048" />
<glyph unicode="&#xd;" horiz-adv-x="2048" />
<glyph unicode=" "  horiz-adv-x="409" />
<glyph unicode="&#x09;" horiz-adv-x="409" />
<glyph unicode="&#xa0;" horiz-adv-x="409" />
<glyph unicode="!" horiz-adv-x="518" d="M133 0v260h250v-260h-250zM143 758v635h232v-635l-25 -402h-178z" />
<glyph unicode="&#x22;" horiz-adv-x="811" d="M104 1229v164h238v-164l-45 -436h-154zM471 1229v164h238v-164l-45 -436h-154z" />
<glyph unicode="#" horiz-adv-x="1380" d="M68 365v204h299l28 193h-282v207h317l68 424h207l-70 -424h190l68 424h207l-70 -424h281v-207h-314l-30 -193h299v-204h-330l-59 -365h-207l59 365h-188l-60 -365h-207l60 365h-266zM571 569h191l29 193h-189z" />
<glyph unicode="$" horiz-adv-x="1263" d="M55 272l201 144q38 -63 112 -116t169 -77v379l-15 4q-72 16 -129 35.5t-111 51t-90 72t-57.5 98.5t-21.5 130q0 158 118.5 265t305.5 131v198h215v-203q239 -35 407 -213l-182 -147q-88 106 -225 145v-370h6q84 -19 144 -38t119 -50t95 -69.5t58 -95.5t22 -130 q0 -170 -118 -280.5t-326 -133.5v-205h-215v207q-165 22 -289 97t-193 171zM373 1006q0 -63 38 -98.5t126 -59.5v330q-78 -17 -121 -63t-43 -109zM752 215q91 17 138.5 63t47.5 113q0 65 -47 102.5t-139 61.5v-340z" />
<glyph unicode="%" horiz-adv-x="1871" d="M63 965q0 68 9 128.5t32.5 121t60 104.5t95.5 71t135 27q79 0 139 -28.5t94.5 -72.5t56 -106.5t29 -120.5t7.5 -124q0 -87 -19 -161.5t-57 -135.5t-103.5 -96t-150.5 -35q-71 0 -128 24t-94 64t-61.5 96t-34.5 116t-10 128zM270 977q0 -256 123 -256q127 0 127 242 q0 268 -127 268q-63 0 -93 -68.5t-30 -185.5zM446 0l732 1393h215l-725 -1393h-222zM1151 414q0 68 9 128.5t32.5 121t60 104.5t95.5 71t135 27q66 0 119 -19t87.5 -54t58.5 -77.5t36.5 -96t18 -102.5t5.5 -103q0 -87 -18.5 -161.5t-57 -135.5t-103.5 -96t-150 -35 q-71 0 -128 24t-94 64t-61.5 96t-34.5 116t-10 128zM1358 426q0 -256 123 -256q127 0 127 242q0 268 -127 268q-63 0 -93 -68.5t-30 -185.5z" />
<glyph unicode="&#x26;" horiz-adv-x="1345" d="M94 389q0 76 24 140.5t68.5 114.5t94.5 86.5t116 72.5q-39 49 -62 85t-44 96t-21 122q0 130 97.5 223.5t261.5 93.5q169 0 261.5 -86t92.5 -215q0 -118 -62.5 -205.5t-185.5 -158.5l189 -223q20 62 41 208l219 -57q-25 -181 -94 -344l284 -342h-305l-119 147 q-82 -90 -180.5 -131t-224.5 -41q-199 0 -325 110t-126 304zM326 397q0 -97 68 -152t167 -55q72 0 139 31.5t109 87.5l-279 338q-99 -59 -151.5 -115t-52.5 -135zM504 1112q0 -17 5 -36t9.5 -31.5t19 -34.5t20 -30t26 -35t24.5 -32q66 37 104 88.5t38 106.5q0 53 -34 85 t-89 32q-56 0 -89.5 -31t-33.5 -82z" />
<glyph unicode="'" horiz-adv-x="444" d="M104 1229v164h238v-164l-45 -436h-154z" />
<glyph unicode="(" horiz-adv-x="583" d="M82 535q0 225 63 451.5t181 426.5l221 -27q-236 -429 -236 -833q0 -436 244 -877l-215 -26q-258 432 -258 885z" />
<glyph unicode=")" horiz-adv-x="583" d="M29 -324q243 439 243 877q0 406 -235 833l221 27q118 -200 181 -426.5t63 -451.5q0 -453 -258 -885z" />
<glyph unicode="*" horiz-adv-x="995" d="M66 999l69 207l264 -100l-10 287h217l-10 -287l264 100l70 -207l-262 -81l180 -226l-174 -119l-176 226l-176 -226l-177 119l187 228z" />
<glyph unicode="+" horiz-adv-x="1339" d="M63 504v217h498v502h219v-502h496v-217h-496v-504h-219v504h-498z" />
<glyph unicode="," horiz-adv-x="493" d="M115 0v268h264v-209q0 -50 -4 -116q-11 -121 -67.5 -182t-192.5 -64v133q61 5 88.5 35.5t27.5 109.5v25h-116z" />
<glyph unicode="-" horiz-adv-x="833" d="M125 438v221h584v-221h-584z" />
<glyph unicode="." horiz-adv-x="489" d="M113 0v270h264v-270h-264z" />
<glyph unicode="/" horiz-adv-x="1062" d="M45 0l735 1393h238l-733 -1393h-240z" />
<glyph unicode="0" d="M72 690q0 106 16.5 205t56 195.5t99 167.5t153.5 115t211 44q113 0 203.5 -40.5t150.5 -108.5t100 -162t57.5 -197.5t17.5 -218.5q0 -112 -15 -210.5t-52.5 -193.5t-96 -162t-152 -108t-213.5 -41q-116 0 -207.5 37t-152.5 101t-101 155.5t-57.5 195.5t-17.5 226z M330 686q0 -75 7.5 -142t27.5 -132t50.5 -111.5t80 -75t112.5 -28.5q78 0 134 42t85 115.5t41.5 154.5t12.5 177q0 77 -7.5 145.5t-26.5 137t-49 117.5t-78.5 79.5t-111.5 30.5t-112.5 -30.5t-80 -79.5t-50.5 -117t-27.5 -137t-7.5 -146z" />
<glyph unicode="1" d="M236 909v187h73q158 0 238 59q100 73 106 238h201v-1393h-236v909h-382z" />
<glyph unicode="2" d="M98 0v190q186 123 426 338q50 45 72 65t61 58.5t56.5 60t42 56.5t35 63.5t18.5 65t8 74.5q0 106 -62 169.5t-167 63.5q-111 0 -170.5 -73.5t-59.5 -180.5q0 -64 23 -135l-240 33q-24 74 -24 147q0 185 136 303.5t355 118.5q212 0 339.5 -118.5t127.5 -313.5 q0 -66 -18 -130.5t-44.5 -118t-72 -111.5t-86 -100.5t-102 -95.5t-104 -85.5t-107.5 -81.5l-64 -49v-2q76 2 217 2h414v-213h-1010z" />
<glyph unicode="3" d="M88 410l246 34q29 -266 258 -266q124 0 187 69.5t63 166.5q0 155 -156 202q-52 15 -174 15h-92v198h112q90 0 138 13q69 18 106 67.5t37 116.5q0 82 -56.5 138.5t-166.5 56.5q-52 0 -94 -15.5t-68 -40t-44 -57t-26 -63t-10 -62.5l-223 37q3 170 129 283.5t348 113.5 q215 0 335 -98t120 -256q0 -116 -62 -195.5t-153 -122.5q256 -90 256 -348q0 -185 -134.5 -303.5t-369.5 -118.5q-240 0 -363 115t-143 320z" />
<glyph unicode="4" d="M53 305v182l635 906h236v-885h219v-203h-219v-305h-232v305h-639zM311 508h381v211q0 220 13 385h-3q-62 -126 -186 -305z" />
<glyph unicode="5" d="M96 336l242 63q20 -96 86.5 -155.5t169.5 -59.5q127 0 191.5 78.5t64.5 210.5q0 129 -65.5 207t-192.5 78q-97 0 -160 -52.5t-86 -140.5l-219 49l106 779h805l-20 -217h-596l-49 -314q31 33 103.5 63.5t174.5 30.5q207 0 332 -126.5t125 -344.5q0 -107 -32 -198.5 t-93.5 -161.5t-161 -110t-225.5 -40q-198 0 -331.5 95.5t-168.5 265.5z" />
<glyph unicode="6" d="M88 680q0 351 140.5 544t404.5 193q108 0 192.5 -30t139 -84t88 -120t49.5 -147l-236 -49q-9 38 -25 73t-43.5 71t-72.5 57.5t-102 21.5q-87 0 -150 -58t-92.5 -146.5t-32.5 -196.5q48 48 128 84.5t188 36.5q93 0 174.5 -28.5t145 -82.5t100 -141.5t36.5 -196.5 q0 -230 -136.5 -368t-369.5 -138q-251 0 -388.5 175.5t-137.5 529.5zM352 580q-1 -66 12.5 -131.5t42 -126.5t82 -98.5t125.5 -37.5q111 0 178.5 77t67.5 204q0 115 -65 181.5t-181 66.5q-92 0 -163 -44t-99 -91z" />
<glyph unicode="7" d="M92 913v480h1063v-201q-209 -257 -338 -560t-172 -632h-272q28 181 104 399q133 385 397 777h-550v-263h-232z" />
<glyph unicode="8" d="M84 387q0 239 238 328q-199 92 -199 317q0 169 130.5 277t350.5 108t350.5 -108t130.5 -277q0 -226 -198 -317q237 -89 237 -328q0 -192 -138.5 -302t-381.5 -110t-381.5 110t-138.5 302zM332 408q0 -99 74 -158.5t198 -59.5q125 0 199 57t74 163q0 95 -72.5 151.5 t-200.5 56.5t-200 -57.5t-72 -152.5zM360 1014q0 -81 63.5 -142t180.5 -61t180.5 61t63.5 142q0 83 -61.5 139.5t-182.5 56.5t-182.5 -56.5t-61.5 -139.5z" />
<glyph unicode="9" d="M88 911q0 230 136.5 368t369.5 138q251 0 388.5 -175t137.5 -529q0 -351 -140.5 -544.5t-404.5 -193.5q-108 0 -192.5 30t-139 84t-88 120t-49.5 147l236 50q9 -38 25 -73t44 -70.5t73 -57t102 -21.5q87 0 149.5 58t92 146t32.5 196q-48 -48 -127.5 -84.5t-187.5 -36.5 q-93 0 -174.5 28t-145 82.5t-100.5 141.5t-37 196zM348 928q0 -115 65 -181.5t181 -66.5q92 0 163 44t99 91q1 66 -12.5 131t-42 126t-82 98.5t-125.5 37.5q-111 0 -178.5 -76.5t-67.5 -203.5z" />
<glyph unicode=":" horiz-adv-x="520" d="M129 0v270h264v-270h-264zM129 705v270h264v-270h-264z" />
<glyph unicode=";" horiz-adv-x="524" d="M129 0v268h264v-209q0 -50 -4 -116q-11 -121 -67.5 -182t-192.5 -64v133q61 5 89 35.5t28 109.5v25h-117zM129 705v270h264v-270h-264z" />
<glyph unicode="&#x3c;" horiz-adv-x="1466" d="M57 598v180l1311 647v-225l-1022 -508l1022 -520v-225z" />
<glyph unicode="=" horiz-adv-x="1660" d="M141 340v180h1381v-180h-1381zM141 680v180h1381v-180h-1381z" />
<glyph unicode="&#x3e;" horiz-adv-x="1466" d="M98 -53v225l1022 520l-1022 508v225l1311 -647v-180z" />
<glyph unicode="?" horiz-adv-x="1011" d="M61 1020q0 167 120 282t323 115q113 0 200.5 -32.5t140 -88.5t79 -126t26.5 -150q0 -207 -180 -361l-68 -55q-73 -64 -97.5 -102.5t-24.5 -102.5v-65h-222v78q0 102 29.5 170t116.5 139l86 72q108 87 108 225q0 86 -52 138t-146 52q-97 0 -149 -55t-52 -143 q0 -104 70 -217l-265 38q-43 79 -43 189zM348 0v256h242v-256h-242z" />
<glyph unicode="@" horiz-adv-x="1699" d="M80 453q0 164 57.5 309.5t161 254.5t258 172.5t338.5 63.5q145 0 266 -40t203.5 -107.5t140.5 -157t84.5 -187.5t26.5 -200q0 -112 -21.5 -206.5t-66 -168.5t-118.5 -115.5t-171 -41.5q-75 0 -131 25t-66 67h-2q-92 -92 -252 -92q-81 0 -146.5 27t-109 89t-43.5 152 q0 120 76.5 179.5t222.5 84.5l185 33q35 6 45 14.5t10 32.5v12q0 107 -151 107q-175 0 -172 -148l-189 11q-1 148 101.5 220t267.5 72q334 0 334 -251v-408q0 -78 61 -78q53 0 92 50.5t58.5 131t19.5 177.5q0 109 -32 207t-96.5 179t-174.5 129t-252 48q-122 0 -226.5 -36 t-178 -97.5t-126 -144t-77.5 -175t-25 -190.5q0 -154 51 -279.5t139 -207.5t205 -126.5t250 -44.5q348 0 586 273l88 -131q-134 -146 -309 -219.5t-373 -73.5q-170 0 -316.5 51t-259.5 149t-178 253.5t-65 351.5zM692 303q0 -58 39.5 -87.5t108.5 -29.5q60 0 105 22.5 t65 65.5q16 29 16 82v101q-13 -6 -38 -12.5t-61.5 -13.5t-52.5 -11q-37 -8 -52 -11.5t-42.5 -11t-38.5 -15t-25 -18.5t-19 -26t-5 -35z" />
<glyph unicode="A" horiz-adv-x="1259" d="M8 0l484 1393h278l479 -1393h-264l-106 315h-506l-109 -315h-256zM442 535h365l-129 423q-15 44 -51 179h-2q-18 -76 -52 -174z" />
<glyph unicode="B" horiz-adv-x="1327" d="M156 0v1393h546q123 0 191.5 -12.5t122.5 -39.5q85 -42 133.5 -122.5t48.5 -188.5q0 -102 -51.5 -180t-132.5 -113q102 -41 166.5 -128.5t64.5 -211.5q0 -115 -50.5 -202.5t-139.5 -135.5q-56 -30 -125.5 -44.5t-196.5 -14.5h-577zM401 217h293q91 0 138.5 7.5t82.5 27.5 q38 24 61 67.5t23 100.5t-23 100.5t-61 67.5q-35 22 -82 28.5t-139 6.5h-293v-406zM401 821h283q49 0 70.5 0.5t62 8t64.5 22.5q75 49 75 149q0 52 -26.5 93t-67.5 61q-54 25 -178 25h-283v-359z" />
<glyph unicode="C" horiz-adv-x="1363" d="M84 696q0 212 80 375t231.5 254.5t352.5 91.5q93 0 175.5 -22t140 -54.5t107.5 -78.5t79 -84t53 -80l-216 -133q-108 231 -339 231q-183 0 -288.5 -135.5t-105.5 -364.5t104 -361t290 -132q230 0 335 215l234 -99q-22 -44 -50.5 -86t-78.5 -90.5t-109.5 -84t-146 -59.5 t-184.5 -24q-210 0 -361.5 92.5t-227 254t-75.5 374.5z" />
<glyph unicode="D" horiz-adv-x="1400" d="M156 0v1393h389q85 0 128 -1t105.5 -6t101.5 -15t85.5 -29t87.5 -48q118 -86 189 -241t71 -353q0 -174 -53 -318t-150 -237q-37 -36 -74.5 -61t-84.5 -41t-83.5 -25t-100.5 -13t-104 -4.5t-124 -0.5h-383zM403 223h162q73 0 113 2t91.5 9.5t88.5 25t68 47.5q53 54 89 158 t36 227q0 265 -144 391q-58 51 -138 66.5t-230 15.5h-136v-942z" />
<glyph unicode="E" horiz-adv-x="1253" d="M156 0v1393h974v-219h-729v-345h662v-219h-662v-391h781v-219h-1026z" />
<glyph unicode="F" horiz-adv-x="1122" d="M156 0v1393h897v-219h-652v-363h625v-219h-625v-592h-245z" />
<glyph unicode="G" horiz-adv-x="1433" d="M84 696q0 212 81.5 375.5t233.5 254.5t353 91q93 0 175.5 -22t140 -54.5t107.5 -78.5t79 -84t53 -80l-215 -133q-108 231 -340 231q-184 0 -291 -136t-107 -364q0 -229 106.5 -365t291.5 -136q324 0 344 344h-418v223h647v-762h-233v106q-64 -58 -160.5 -94.5 t-206.5 -36.5q-198 0 -344 92t-221.5 254.5t-75.5 374.5z" />
<glyph unicode="H" horiz-adv-x="1425" d="M156 0v1393h245v-564h623v564h246v-1393h-250l4 610h-623v-610h-245z" />
<glyph unicode="I" horiz-adv-x="557" d="M156 0v1393h245v-1393h-245z" />
<glyph unicode="J" horiz-adv-x="776" d="M37 -2v219q55 -12 123 -12q122 0 174 55q29 33 39 82.5t10 144.5v906h246v-969q0 -100 -12 -170.5t-48 -122.5q-52 -74 -155 -110.5t-221 -36.5q-97 0 -156 14z" />
<glyph unicode="K" horiz-adv-x="1353" d="M156 0v1393h245v-629l609 629h331l-567 -576l580 -817h-314l-450 637l-189 -186v-451h-245z" />
<glyph unicode="L" horiz-adv-x="1030" d="M156 0v1393h247v-1168h598v-225h-845z" />
<glyph unicode="M" horiz-adv-x="1638" d="M156 0v1393h366l221 -770q67 -239 76 -291h4q5 24 17 69t31 113t30 111l209 768h373v-1393h-240v590q0 283 17 532h-5q-16 -79 -71 -272l-244 -850h-246l-243 846q-18 64 -34 125t-23 90l-7 29h-4q12 -198 12 -500v-590h-239z" />
<glyph unicode="N" horiz-adv-x="1417" d="M156 0v1393h229l530 -797q69 -105 107 -170q0 4 -2 193t-2 307v467h244v-1393h-230l-549 838q-18 28 -40.5 65.5l-34.5 57.5t-13 20q4 -132 4 -516v-465h-243z" />
<glyph unicode="O" horiz-adv-x="1486" d="M84 696q0 212 79.5 375t229.5 254.5t350 91.5t350.5 -91.5t230 -254.5t79.5 -375q0 -159 -44 -291.5t-126.5 -228t-208 -148.5t-281.5 -53q-207 0 -357 92t-226 254t-76 375zM352 696q0 -229 103.5 -363t287.5 -134t288 134t104 363t-105 365.5t-287 136.5t-286.5 -136.5 t-104.5 -365.5z" />
<glyph unicode="P" horiz-adv-x="1249" d="M156 0v1393h465q157 0 263 -20t183 -85q65 -56 101 -138.5t36 -178.5q0 -98 -36 -183t-101 -141q-77 -65 -182.5 -84.5t-263.5 -19.5h-220v-543h-245zM401 764h254q133 0 195 27q46 23 73 71.5t27 108.5q0 59 -27 107.5t-73 70.5q-61 27 -195 27h-254v-412z" />
<glyph unicode="Q" horiz-adv-x="1505" d="M84 696q0 212 79.5 375t229.5 254.5t350 91.5t350.5 -91.5t230 -254.5t79.5 -375q0 -245 -100 -422l157 -153l-180 -178l-143 147q-159 -115 -394 -115q-207 0 -357 92t-226 254t-76 375zM352 696q0 -229 103.5 -363t287.5 -134t288 134t104 363t-105 365.5t-287 136.5 t-286.5 -136.5t-104.5 -365.5z" />
<glyph unicode="R" horiz-adv-x="1318" d="M156 0v1393h510q75 0 123 -3t112.5 -17.5t114.5 -43.5q198 -116 198 -356q0 -218 -184 -342q-40 -24 -108 -49l348 -582h-293l-324 557h-252v-557h-245zM401 778h265q132 0 196 27q45 22 72 69.5t27 104.5t-26.5 103.5t-72.5 66.5q-64 27 -196 27h-265v-398z" />
<glyph unicode="S" horiz-adv-x="1273" d="M43 260l205 148q52 -86 164 -149.5t250 -63.5q136 0 209 51t73 137q0 76 -59 115t-178 65l-187 41q-73 16 -131 36t-113.5 53t-92.5 74.5t-59 102t-22 134.5q0 121 70 216t190 146t267 51q330 0 540 -231l-186 -152q-62 76 -155 122t-205 46q-119 0 -187.5 -52 t-68.5 -134q0 -74 50.5 -111.5t174.5 -64.5l168 -37q85 -19 147 -39.5t122 -52.5t97 -72.5t59.5 -99.5t22.5 -133q0 -195 -150 -313t-409 -118q-109 0 -208 25t-174 67.5t-130.5 90.5t-93.5 102z" />
<glyph unicode="T" horiz-adv-x="1136" d="M39 1174v219h1059v-219h-406v-1174h-246v1174h-407z" />
<glyph unicode="U" horiz-adv-x="1368" d="M143 578v815h244v-811q0 -101 6.5 -150.5t24.5 -85.5q61 -143 266 -143t266 143q18 36 24.5 85.5t6.5 150.5v811h244v-815q0 -149 -16.5 -233t-55.5 -152q-67 -111 -188 -164.5t-281 -53.5t-281 53.5t-188 164.5q-39 68 -55.5 152t-16.5 233z" />
<glyph unicode="V" horiz-adv-x="1216" d="M20 1393h259l282 -938q14 -49 29.5 -113.5t15.5 -71.5l53 185l291 938h254l-450 -1393h-301z" />
<glyph unicode="W" horiz-adv-x="1773" d="M49 1393h262l172 -912q33 -194 35 -194q12 53 41 194l191 912h274l193 -914q34 -160 36 -203l39 216l183 901h254l-310 -1393h-319l-162 729q-12 52 -24 124.5t-18 117.5t-7 45q-33 -176 -58 -289l-155 -727h-324z" />
<glyph unicode="X" horiz-adv-x="1320" d="M0 0l514 709l-494 684h310l342 -494l338 494h295l-496 -666l510 -727h-299l-363 535l-376 -535h-281z" />
<glyph unicode="Y" horiz-adv-x="1273" d="M4 1393h285l356 -596l363 596h282l-534 -824v-569h-246v569z" />
<glyph unicode="Z" horiz-adv-x="1189" d="M63 0v203l738 968h-703v222h1010v-201l-733 -969h737v-223h-1049z" />
<glyph unicode="[" horiz-adv-x="626" d="M139 -326v1719h422v-174h-190v-1369h190v-176h-422z" />
<glyph unicode="\" horiz-adv-x="1067" d="M45 1393h238l739 -1393h-240z" />
<glyph unicode="]" horiz-adv-x="626" d="M66 -150h190v1369h-190v174h421v-1719h-421v176z" />
<glyph unicode="^" horiz-adv-x="923" d="M8 668l361 725h182l348 -725h-244l-198 432l-199 -432h-250z" />
<glyph unicode="_" horiz-adv-x="1492" d="M199 -135h1095v-205h-1095v205z" />
<glyph unicode="`" horiz-adv-x="1024" d="M289 1393h276l131 -263h-200z" />
<glyph unicode="a" horiz-adv-x="1062" d="M76 281q0 104 55 172q78 95 289 133l215 37q40 8 50.5 16t10.5 35v16q0 62 -42 92.5t-132 30.5q-196 0 -196 -165v-5l-220 14v5q0 84 32 148q33 66 92.5 105.5t135.5 58.5t166 19q388 0 388 -286v-484q0 -48 11.5 -65t51.5 -17h12v-153q-66 -11 -110 -11q-148 0 -172 101 h-2q-91 -105 -291 -105q-151 0 -247.5 78t-96.5 230zM313 283q0 -62 42 -97.5t126 -35.5q99 0 157 49.5t58 146.5v119q-59 -20 -133 -35l-90 -18q-87 -18 -123.5 -45.5t-36.5 -83.5z" />
<glyph unicode="b" horiz-adv-x="1155" d="M129 0v1393h233v-525q42 56 119 93.5t168 37.5q196 0 314 -143.5t118 -372.5q0 -222 -119.5 -365t-312.5 -143q-185 0 -287 127v-102h-233zM352 487q0 -140 68.5 -224.5t179.5 -84.5q113 0 180.5 82.5t67.5 226.5q0 146 -67 229t-181 83q-111 0 -179.5 -86t-68.5 -226z " />
<glyph unicode="c" horiz-adv-x="1034" d="M74 483q0 120 37 218t102 162.5t152 99t188 34.5q162 0 271.5 -75.5t156.5 -198.5l-195 -102q-28 82 -84.5 129t-142.5 47q-118 0 -186 -82.5t-68 -227.5t68.5 -227t185.5 -82q168 0 234 166l188 -100q-19 -44 -52 -87t-84 -86t-127 -69.5t-165 -26.5q-217 0 -348 133.5 t-131 374.5z" />
<glyph unicode="d" horiz-adv-x="1155" d="M74 483q0 229 118 372.5t314 143.5q91 0 168 -37.5t119 -93.5v525h233v-1393h-233v102q-102 -127 -287 -127q-193 0 -312.5 143t-119.5 365zM307 487q0 -144 67.5 -226.5t180.5 -82.5q111 0 179.5 84.5t68.5 224.5t-68.5 226t-179.5 86q-114 0 -181 -83t-67 -229z" />
<glyph unicode="e" horiz-adv-x="1087" d="M74 496q0 223 136 362t343 139q114 0 202.5 -38t145 -107t85 -162.5t28.5 -206.5q0 -8 -1 -29.5t-1 -29.5h-711q13 -108 80.5 -178t189.5 -70q179 0 285 168l162 -123q-17 -27 -37 -52.5t-61.5 -63t-88.5 -64t-119 -46.5t-153 -20q-218 0 -351.5 143t-133.5 378zM307 598 h475q-5 95 -68 154t-161 59q-99 0 -170 -62.5t-76 -150.5z" />
<glyph unicode="f" horiz-adv-x="716" d="M41 793v182h172v115q0 110 29 182q31 70 99.5 102.5t184.5 32.5q66 0 154 -10v-189q-54 4 -84 4q-54 0 -83.5 -8t-45.5 -30q-21 -30 -21 -103v-96h234v-182h-234v-793h-233v793h-172z" />
<glyph unicode="g" horiz-adv-x="1155" d="M76 485q0 233 114.5 373.5t313.5 140.5q96 0 172 -37t119 -94v107h233v-920q0 -151 -31 -233q-45 -120 -155.5 -174t-294.5 -54q-215 0 -328 89.5t-119 250.5l236 19q9 -80 56.5 -128t162.5 -48q131 0 185.5 58.5t54.5 197.5v88h-2q-92 -125 -287 -125q-197 0 -313.5 133 t-116.5 356zM309 494q0 -146 64.5 -223.5t183.5 -77.5q117 0 182.5 80t65.5 221q0 142 -66 223.5t-182 81.5q-119 0 -183.5 -79t-64.5 -226z" />
<glyph unicode="h" horiz-adv-x="1118" d="M129 0v1393h233v-543q35 67 116 108t188 41q178 0 268 -120q35 -49 50 -119.5t15 -206.5v-553h-233v494q0 130 -16 186q-32 113 -172 113q-105 0 -160.5 -74t-55.5 -197v-522h-233z" />
<glyph unicode="i" horiz-adv-x="491" d="M129 0v975h233v-975h-233zM129 1155v238h233v-238h-233z" />
<glyph unicode="j" horiz-adv-x="491" d="M-29 -213q40 2 62.5 5.5t47.5 14.5t36.5 35t11.5 62v1071h233v-1071q0 -131 -18 -176q-18 -43 -52 -72t-79 -42.5t-86 -18.5t-92 -5q-33 0 -64 2v195zM129 1155v238h233v-238h-233z" />
<glyph unicode="k" horiz-adv-x="1095" d="M129 0v1393h233v-818l394 400h301l-385 -379l420 -596h-291l-295 436l-144 -131v-305h-233z" />
<glyph unicode="l" horiz-adv-x="507" d="M137 0v1393h234v-1393h-234z" />
<glyph unicode="m" horiz-adv-x="1746" d="M129 0v975h233v-125q38 66 117 107.5t189 41.5q156 0 241 -94q21 -24 41 -57q124 151 334 151q174 0 258 -94q48 -55 67 -126.5t19 -225.5v-553h-233v494q0 61 -2.5 99.5t-13.5 80.5t-30.5 65.5t-55.5 38.5t-87 15q-105 0 -158 -73.5t-53 -197.5v-522h-233v494 q0 61 -2.5 99.5t-13.5 80.5t-30.5 65.5t-55.5 38.5t-87 15q-104 0 -157.5 -74t-53.5 -197v-522h-233z" />
<glyph unicode="n" horiz-adv-x="1118" d="M129 0v975h233v-125q35 67 116 108t188 41q178 0 268 -120q35 -49 50 -119.5t15 -206.5v-553h-233v494q0 130 -16 186q-32 113 -172 113q-105 0 -160.5 -74t-55.5 -197v-522h-233z" />
<glyph unicode="o" horiz-adv-x="1122" d="M74 483q0 235 132 374.5t355 139.5t355.5 -139.5t132.5 -374.5q0 -233 -132 -370.5t-356 -137.5t-355.5 137.5t-131.5 370.5zM305 487q0 -144 71 -227.5t185 -83.5t185 84t71 227q0 146 -69.5 229t-186.5 83t-186.5 -83.5t-69.5 -228.5z" />
<glyph unicode="p" horiz-adv-x="1155" d="M129 -389v1364h233v-107q42 56 119 93.5t168 37.5q196 0 314 -143.5t118 -372.5q0 -222 -119.5 -365t-312.5 -143q-185 0 -287 127v-491h-233zM352 487q0 -140 68.5 -224.5t179.5 -84.5q113 0 180.5 82.5t67.5 226.5q0 146 -67 229t-181 83q-111 0 -179.5 -86t-68.5 -226 z" />
<glyph unicode="q" horiz-adv-x="1155" d="M74 483q0 229 118 372.5t314 143.5q91 0 168 -37.5t119 -93.5v107h233v-1364h-233v491q-102 -127 -287 -127q-193 0 -312.5 143t-119.5 365zM307 487q0 -144 67.5 -226.5t180.5 -82.5q111 0 179.5 84.5t68.5 224.5t-68.5 226t-179.5 86q-114 0 -181 -83t-67 -229z" />
<glyph unicode="r" horiz-adv-x="729" d="M129 0v975h233v-144q6 17 18 36.5t36 43.5t54.5 43t77 32t99.5 13q17 0 37 -2v-237q-46 4 -66 4q-92 0 -147 -33t-82 -100q-27 -73 -27 -193v-438h-233z" />
<glyph unicode="s" horiz-adv-x="985" d="M47 174l158 139q108 -145 299 -145q88 0 136 29t48 82q0 20 -7.5 35t-17 24t-32.5 17t-39.5 12t-52.5 12l-146 31q-68 15 -119.5 36t-95 53.5t-66 82t-22.5 114.5q0 77 35 137t92.5 95t125 53t140.5 18q134 0 243.5 -47t164.5 -108l-135 -146q-114 111 -275 111 q-71 0 -115 -25t-44 -71q0 -17 4.5 -30.5t19 -24t26.5 -17t41.5 -15t49 -13t63.5 -13.5l117 -27q63 -15 107 -32.5t87 -47t65 -77t22 -111.5q0 -107 -61 -183.5t-155.5 -111.5t-209.5 -35q-159 0 -278.5 61.5t-172.5 137.5z" />
<glyph unicode="t" horiz-adv-x="751" d="M25 793v182h208v340l234 51v-391h227v-182h-227v-498q0 -73 27 -100q24 -27 98 -27q52 0 102 8v-184q-77 -17 -174 -17q-179 0 -246 84q-27 32 -34 73.5t-7 123.5v537h-208z" />
<glyph unicode="u" horiz-adv-x="1097" d="M119 422v553h233v-518q0 -134 25 -189q39 -86 149 -86q105 0 157 73.5t52 197.5v522h234v-975h-234v125q-37 -65 -114 -107.5t-177 -42.5q-153 0 -239 95q-48 55 -67 126.5t-19 225.5z" />
<glyph unicode="v" horiz-adv-x="929" d="M25 975h241l150 -506q14 -44 27 -93t19 -76l7 -26h2q20 95 51 201l146 500h239l-321 -975h-244z" />
<glyph unicode="w" horiz-adv-x="1462" d="M35 975h237l115 -430q53 -205 66 -275h2q25 131 65 281l113 424h207l112 -430q52 -196 66 -275h2q22 119 67 281l115 424h234l-297 -975h-228l-102 373q-50 173 -74 325h-2q-43 -205 -78 -329l-108 -369h-232z" />
<glyph unicode="x" horiz-adv-x="976" d="M12 0l336 516l-303 459h283l168 -273l161 273h275l-303 -459l336 -516h-273l-209 324l-202 -324h-269z" />
<glyph unicode="y" horiz-adv-x="929" d="M12 975h244l160 -526q13 -39 26 -89.5t20 -81.5l7 -30h2q24 111 49 201l139 526h234l-326 -1092q-47 -155 -102 -213q-38 -41 -91 -58.5t-136 -17.5q-60 0 -127 13v190q42 -10 79 -10q71 0 103.5 29t52.5 94l16 59z" />
<glyph unicode="z" horiz-adv-x="983" d="M74 0v180l528 588h-510v205h809v-182l-520 -586h520v-205h-827z" />
<glyph unicode="{" horiz-adv-x="626" d="M66 465v151q32 9 53 22.5t32 26t16 40t6 46.5t1 64v260q0 83 10.5 137t32.5 91t65.5 56t99 26.5t144.5 7.5h33v-170q-95 0 -124 -32.5t-29 -125.5v-188q0 -171 -20.5 -239.5t-94.5 -94.5v-4q74 -26 94.5 -94.5t20.5 -239.5v-203q0 -93 29 -125.5t124 -32.5v-170h-33 q-89 0 -144.5 7.5t-99 26.5t-65.5 56t-32.5 91t-10.5 137v274q0 45 -1 64t-6 46.5t-16 40t-32 26t-53 22.5z" />
<glyph unicode="|" horiz-adv-x="509" d="M139 -326v1719h232v-1719h-232z" />
<glyph unicode="}" horiz-adv-x="626" d="M68 -156q95 0 124 32.5t29 125.5v203q0 171 20.5 239.5t94.5 94.5v4q-74 26 -94.5 94.5t-20.5 239.5v188q0 93 -29 125.5t-124 32.5v170h32q74 0 123.5 -4.5t91.5 -18t66.5 -35t41.5 -58t23.5 -85t6.5 -117.5v-260q0 -45 1 -64t6 -46.5t16 -40t32 -26t53 -22.5v-151 q-32 -9 -53 -22.5t-32 -26t-16 -40t-6 -46.5t-1 -64v-274q0 -69 -6.5 -117.5t-23.5 -85t-41.5 -58t-66.5 -35t-91.5 -18t-123.5 -4.5h-32v170z" />
<glyph unicode="~" horiz-adv-x="1175" d="M70 616q39 63 124 119t191 56q42 0 87.5 -13t72.5 -25.5t84 -41.5q7 -4 26 -14t29.5 -15t28.5 -12t36 -10t39 -3q57 0 117.5 30t100.5 77l102 -178q-60 -75 -150 -118.5t-178 -43.5q-24 0 -47.5 3.5t-39 6.5t-41 13.5t-34.5 14.5t-40.5 20t-40.5 20q-105 51 -156 51 q-102 0 -199 -119z" />
<glyph unicode="&#xa1;" horiz-adv-x="487" d="M121 715v260h250v-260h-250zM129 217l25 401h178l28 -401v-635h-231v635z" />
<glyph unicode="&#xa2;" horiz-adv-x="1062" d="M84 483q0 207 104 339.5t273 164.5v201h201v-199q127 -22 212.5 -98t122.5 -184l-200 -101q-37 130 -135 172v-583q100 39 143 172l194 -105q-11 -29 -28.5 -59.5t-47 -65.5t-65.5 -64t-87 -52.5t-109 -34.5v-217h-201v215q-174 30 -275.5 159t-101.5 340zM315 487 q0 -105 38.5 -179t107.5 -107v573q-69 -31 -107.5 -105.5t-38.5 -181.5z" />
<glyph unicode="&#xa3;" horiz-adv-x="1157" d="M86 0v205q61 5 97.5 17t63.5 41.5t37.5 79.5t10.5 130q0 88 -4 129h-205v207h188q-4 90 -4 160q0 96 21.5 174t67 140.5t125 97t188.5 34.5q191 0 299 -110t108 -306l-225 -41q-7 242 -180 242q-166 0 -166 -237q0 -81 6 -154h289v-207h-277q4 -74 4 -127 q0 -200 -90 -256v-2q106 2 256 2h353v-219h-963z" />
<glyph unicode="&#xa4;" horiz-adv-x="1148" d="M82 248l125 123q-51 91 -51 207q0 117 55 213l-55 53l-74 69l162 162l125 -127q89 51 206 51q126 0 211 -49l121 121l158 -158l-121 -122q51 -89 51 -213q0 -126 -49 -211l121 -117l-160 -160l-121 121q-92 -51 -211 -51q-126 0 -210 51l-123 -123zM354 578 q0 -93 64.5 -159.5t156.5 -66.5q94 0 159 66.5t65 159.5q0 95 -64 161t-160 66q-92 0 -156.5 -66t-64.5 -161z" />
<glyph unicode="&#xa5;" horiz-adv-x="1294" d="M59 1393h269l327 -574l312 574h268l-375 -639h275v-195h-367v-127h367v-194h-367v-238h-238v238h-370v194h370v127h-370v195h278z" />
<glyph unicode="&#xa6;" horiz-adv-x="518" d="M143 -326v662h232v-662h-232zM143 731v662h232v-662h-232z" />
<glyph unicode="&#xa7;" horiz-adv-x="1060" d="M63 20l162 142q107 -148 291 -148q92 0 142.5 31t50.5 90q0 84 -164 144l-156 59q-141 50 -215 123t-74 194q0 87 53 150.5t126 89.5q-25 20 -38 32.5t-35 40.5t-33 64.5t-11 81.5q0 62 23.5 113t62 85.5t90 58.5t107 35t112.5 11q134 0 241 -47.5t163 -109.5l-136 -146 q-53 51 -125 82t-149 31q-69 0 -110.5 -24.5t-41.5 -67.5q0 -46 35 -72.5t127 -67.5l141 -61q61 -26 102.5 -49.5t83.5 -58.5t63.5 -82.5t21.5 -106.5q0 -52 -13.5 -95.5t-38.5 -75.5t-49.5 -54t-56.5 -43q34 -25 57 -47t45.5 -68t22.5 -100q0 -107 -59.5 -183.5 t-155.5 -112.5t-215 -36q-154 0 -274 61.5t-173 136.5zM330 680q0 -51 36.5 -81t116.5 -62l168 -66q39 19 62.5 51.5t23.5 67.5q0 43 -31 70.5t-98 56.5l-84 37q-28 12 -94 37q-45 -12 -72.5 -43t-27.5 -68z" />
<glyph unicode="&#xa8;" horiz-adv-x="1024" d="M211 1130v242h221v-242h-221zM594 1130v242h221v-242h-221z" />
<glyph unicode="&#xa9;" horiz-adv-x="1564" d="M84 717q0 146 53.5 275.5t146 223t222.5 147.5t276 54q195 0 355.5 -92t252 -252.5t91.5 -355.5t-91.5 -355.5t-252 -253t-355.5 -92.5t-355.5 92.5t-251.5 253t-91 355.5zM254 717q0 -147 69 -270.5t190.5 -196t268.5 -72.5t268.5 72.5t191 196t69.5 270.5t-69.5 270.5 t-191 195.5t-268.5 72t-268.5 -72t-190.5 -195.5t-69 -270.5zM416 713q0 181 102 292t273 111q64 0 118.5 -18t92 -48t61.5 -58t41 -58l-133 -92q-62 131 -180 131q-95 0 -149 -70.5t-54 -189.5t53 -187.5t150 -68.5q116 0 178 121l139 -70q-15 -32 -38.5 -63t-61.5 -63.5 t-94.5 -52.5t-122.5 -20q-178 0 -276.5 110.5t-98.5 293.5z" />
<glyph unicode="&#xaa;" horiz-adv-x="790" d="M84 940q0 93 57.5 138t173.5 67l142 26q37 6 37 33v8q0 80 -113 80q-128 0 -125 -114l-154 8q-1 116 79 173.5t208 57.5q258 0 258 -196v-320q0 -30 7.5 -40.5t31.5 -10.5h14v-111q-1 0 -6.5 -1t-7.5 -1q-24 -4 -63 -4q-93 0 -117 64q-66 -66 -191 -66q-97 0 -164 53.5 t-67 155.5zM246 944q0 -42 28.5 -63t79.5 -21q64 0 102 32t38 93v70q-10 -4 -78 -17l-35 -6q-69 -12 -102 -30.5t-33 -57.5z" />
<glyph unicode="&#xab;" horiz-adv-x="958" d="M92 446v297l332 285v-270l-195 -156l195 -168v-266zM510 446v297l332 285v-270l-195 -156l195 -168v-266z" />
<glyph unicode="&#xac;" horiz-adv-x="1144" d="M84 733v197h934v-565h-234v368h-700z" />
<glyph unicode="&#xad;" horiz-adv-x="833" d="M125 438v221h584v-221h-584z" />
<glyph unicode="&#xae;" horiz-adv-x="1564" d="M84 717q0 146 53.5 275.5t146 223t222.5 147.5t276 54q195 0 355.5 -92t252 -252.5t91.5 -355.5t-91.5 -355.5t-252 -253t-355.5 -92.5t-355.5 92.5t-251.5 253t-91 355.5zM254 717q0 -147 69 -270.5t190.5 -196t268.5 -72.5t268.5 72.5t191 196t69.5 270.5t-69.5 270.5 t-191 195.5t-268.5 72t-268.5 -72t-190.5 -195.5t-69 -270.5zM463 332v776h342q109 0 166 -29q63 -30 103 -87t40 -134q0 -182 -182 -240l209 -286h-203l-195 276h-120v-276h-160zM623 758h161q91 0 119 14q49 24 49 86q0 65 -49 86q-24 12 -119 12h-161v-198z" />
<glyph unicode="&#xaf;" horiz-adv-x="1024" d="M213 1202v191h598v-191h-598z" />
<glyph unicode="&#xb0;" horiz-adv-x="888" d="M72 1053q0 155 108.5 263.5t263.5 108.5t264 -108.5t109 -263.5t-109 -264t-264 -109t-263.5 109t-108.5 264zM289 1053q0 -63 46 -109.5t109 -46.5t109.5 46.5t46.5 109.5t-46.5 109t-109.5 46t-109 -46t-46 -109z" />
<glyph unicode="&#xb1;" horiz-adv-x="1417" d="M102 0v217h1213v-217h-1213zM102 600v217h498v406h219v-406h496v-217h-496v-321h-219v321h-498z" />
<glyph unicode="&#xb2;" horiz-adv-x="827" d="M104 545v151q211 147 277 213q125 117 125 226q0 47 -26 74.5t-74 27.5q-53 0 -79 -35t-26 -86q0 -41 14 -88l-196 35q-10 45 -10 78q0 119 83.5 197.5t227.5 78.5q134 0 213.5 -75.5t79.5 -202.5q0 -231 -303 -412q74 4 170 4h139v-186h-615z" />
<glyph unicode="&#xb3;" horiz-adv-x="776" d="M76 821l192 31q6 -137 117 -137q53 0 77.5 30t24.5 72q0 53 -36 74q-36 20 -101 20h-51v160h47q62 0 88 16q43 22 43 78q0 34 -24.5 57t-69.5 23q-51 0 -75.5 -30.5t-24.5 -77.5l-181 16q0 111 77 187.5t210 76.5q129 0 205 -64t76 -167q0 -58 -24 -103.5t-62 -70.5 q104 -70 104 -207q0 -115 -81 -190.5t-222 -75.5q-145 0 -224.5 75t-84.5 207z" />
<glyph unicode="&#xb4;" horiz-adv-x="1024" d="M311 1130l131 263h277l-207 -263h-201z" />
<glyph unicode="&#xb5;" horiz-adv-x="1083" d="M133 -389v1364h234v-518q0 -136 24 -189q39 -86 150 -86q105 0 157 73.5t52 197.5v522h233v-975h-233v125q-28 -61 -94.5 -102t-153.5 -41q-79 0 -135 36v-407h-234z" />
<glyph unicode="&#xb6;" horiz-adv-x="1300" d="M57 999q0 194 131 301q59 46 133.5 69.5t204.5 23.5h695v-170h-146v-1485h-174v1485h-178v-1485h-180v870h-17q-133 0 -207.5 21t-130.5 67q-131 101 -131 303z" />
<glyph unicode="&#xb7;" horiz-adv-x="507" d="M123 520v271h264v-271h-264z" />
<glyph unicode="&#xb8;" horiz-adv-x="1024" d="M344 -100l127 106h119l-78 -67q75 -2 122.5 -42t47.5 -114q0 -88 -62 -135t-149 -47q-63 0 -115 24l31 94q41 -14 78 -14t60.5 18t23.5 48q0 32 -23.5 47.5t-58.5 15.5t-76 -20z" />
<glyph unicode="&#xb9;" horiz-adv-x="583" d="M59 1061v168h74q80 0 109 38t32 126h183v-856h-193v524h-205z" />
<glyph unicode="&#xba;" horiz-adv-x="768" d="M80 1075q0 155 83.5 248.5t221.5 93.5t220.5 -93.5t82.5 -248.5q0 -159 -81.5 -251.5t-221.5 -92.5t-222.5 92.5t-82.5 251.5zM238 1075q0 -94 41 -147.5t106 -53.5q63 0 104 54t41 147t-40 146t-105 53t-106 -54t-41 -145z" />
<glyph unicode="&#xbb;" horiz-adv-x="958" d="M117 168v266l194 168l-194 156v270l332 -285v-297zM535 168v266l194 168l-194 156v270l331 -285v-297z" />
<glyph unicode="&#xbc;" horiz-adv-x="1576" d="M66 1061v168h73q81 0 110 38t32 126h182v-856h-193v524h-204zM274 0l732 1393h215l-725 -1393h-222zM823 188v129l371 531h186v-490h138v-170h-138v-188h-178v188h-379zM1040 358h162v74l8 193h-2q-22 -46 -53 -93l-45 -69z" />
<glyph unicode="&#xbd;" horiz-adv-x="1656" d="M63 1061v168h74q81 0 110 38t32 126h182v-856h-193v524h-205zM281 0l731 1393h215l-725 -1393h-221zM967 0v152q208 145 276 213q125 117 125 225q0 47 -26 74.5t-74 27.5q-53 0 -79 -35t-26 -86q0 -37 15 -88l-197 35q-10 45 -10 78q0 119 83.5 197.5t227.5 78.5 q134 0 213.5 -75.5t79.5 -202.5q0 -231 -303 -412q74 4 170 4h139v-186h-614z" />
<glyph unicode="&#xbe;" horiz-adv-x="1763" d="M66 821l192 31q6 -137 117 -137q53 0 77.5 30t24.5 72q0 52 -37 74q-36 20 -100 20h-51v160h47q62 0 88 16q43 22 43 78q0 34 -24.5 57t-69.5 23q-51 0 -76 -30.5t-25 -77.5l-180 16q0 111 77 187.5t210 76.5q129 0 204.5 -64t75.5 -167q0 -58 -24 -103.5t-62 -70.5 q49 -33 77 -80.5t28 -126.5q0 -115 -81 -190.5t-222 -75.5q-145 0 -224.5 75t-84.5 207zM459 -6l733 1399h215l-727 -1399h-221zM1010 188v129l370 531h187v-490h137v-170h-137v-188h-178v188h-379zM1227 358h162v74l8 193h-2q-23 -46 -54 -93l-45 -69z" />
<glyph unicode="&#xbf;" horiz-adv-x="999" d="M55 -45q0 205 181 360l67 56q74 64 98.5 102t24.5 102v66h221v-78q0 -103 -29 -170.5t-116 -138.5l-86 -72q-109 -88 -109 -225q0 -85 52.5 -137.5t146.5 -52.5q97 0 149 55t52 143q0 104 -70 217l264 -39q43 -79 43 -188q0 -167 -119.5 -282t-322.5 -115 q-113 0 -200.5 32.5t-140 88.5t-79.5 126t-27 150zM416 719v256h241v-256h-241z" />
<glyph unicode="&#xc0;" horiz-adv-x="1259" d="M8 0l484 1393h278l479 -1393h-264l-106 315h-506l-109 -315h-256zM336 1821h287l137 -297h-201zM442 535h365l-129 423q-15 44 -51 179h-2q-18 -76 -52 -174z" />
<glyph unicode="&#xc1;" horiz-adv-x="1259" d="M8 0l484 1393h278l479 -1393h-264l-106 315h-506l-109 -315h-256zM442 535h365l-129 423q-15 44 -51 179h-2q-18 -76 -52 -174zM506 1524l137 297h287l-223 -297h-201z" />
<glyph unicode="&#xc2;" horiz-adv-x="1259" d="M8 0l484 1393h278l479 -1393h-264l-106 315h-506l-109 -315h-256zM295 1524l258 297h164l260 -297h-229l-115 127l-111 -127h-227zM442 535h365l-129 423q-15 44 -51 179h-2q-18 -76 -52 -174z" />
<glyph unicode="&#xc3;" horiz-adv-x="1259" d="M8 0l484 1393h278l479 -1393h-264l-106 315h-506l-109 -315h-256zM268 1591q7 29 24 62.5t44.5 69t70.5 58.5t93 23q49 0 133 -41q72 -39 110 -39q59 0 88 88l148 -49q-38 -96 -91 -154.5t-140 -58.5q-56 0 -136 37q-6 3 -19.5 9.5t-19.5 9.5t-17 8t-17.5 7.5t-15 5.5 t-15 4t-12.5 1q-52 0 -78 -88zM442 535h365l-129 423q-15 44 -51 179h-2q-18 -76 -52 -174z" />
<glyph unicode="&#xc4;" horiz-adv-x="1259" d="M8 0l484 1393h278l479 -1393h-264l-106 315h-506l-109 -315h-256zM338 1524v260h229v-260h-229zM442 535h365l-129 423q-15 44 -51 179h-2q-18 -76 -52 -174zM729 1524v260h229v-260h-229z" />
<glyph unicode="&#xc5;" horiz-adv-x="1259" d="M8 0l484 1393h278l479 -1393h-264l-106 315h-506l-109 -315h-256zM406 1690q0 94 63.5 156.5t157.5 62.5t157.5 -62.5t63.5 -156.5t-63.5 -157t-157.5 -63t-157.5 63t-63.5 157zM442 535h365l-129 423q-15 44 -51 179h-2q-18 -76 -52 -174zM545 1690q0 -33 23.5 -56.5 t56.5 -23.5t56.5 23.5t23.5 56.5t-23.5 56t-56.5 23t-56.5 -23t-23.5 -56z" />
<glyph unicode="&#xc6;" horiz-adv-x="1951" d="M-49 0l827 1393h1053v-219h-676v-345h612v-219h-612v-391h721v-219h-967v336h-497l-199 -336h-262zM524 535h385v407l4 272h-2q-27 -54 -137 -245z" />
<glyph unicode="&#xc7;" horiz-adv-x="1363" d="M84 696q0 212 80 375t231.5 254.5t352.5 91.5q93 0 175.5 -22t140 -54.5t107.5 -78.5t79 -84t53 -80l-216 -133q-108 231 -339 231q-183 0 -288.5 -135.5t-105.5 -364.5t104 -361t290 -132q230 0 335 215l234 -99q-21 -42 -48 -81t-72.5 -85.5t-99.5 -81.5t-131.5 -61 t-164.5 -33l-33 -38q75 -2 122.5 -42t47.5 -114q0 -88 -62 -135t-149 -47q-63 0 -115 24l31 94q41 -14 78 -14t60.5 18t23.5 48q0 32 -23.5 47.5t-58.5 15.5t-76 -20l-47 86l82 77q-190 14 -326 109t-204 251t-68 359z" />
<glyph unicode="&#xc8;" horiz-adv-x="1253" d="M156 0v1393h974v-219h-729v-345h662v-219h-662v-391h781v-219h-1026zM381 1821h287l137 -297h-201z" />
<glyph unicode="&#xc9;" horiz-adv-x="1253" d="M156 0v1393h974v-219h-729v-345h662v-219h-662v-391h781v-219h-1026zM526 1524l138 297h286l-223 -297h-201z" />
<glyph unicode="&#xca;" horiz-adv-x="1253" d="M156 0v1393h974v-219h-729v-345h662v-219h-662v-391h781v-219h-1026zM317 1524l258 297h164l260 -297h-229l-115 127l-110 -127h-228z" />
<glyph unicode="&#xcb;" horiz-adv-x="1253" d="M156 0v1393h974v-219h-729v-345h662v-219h-662v-391h781v-219h-1026zM354 1524v260h230v-260h-230zM745 1524v260h230v-260h-230z" />
<glyph unicode="&#xcc;" horiz-adv-x="557" d="M-6 1821h287l137 -297h-201zM156 0v1393h245v-1393h-245z" />
<glyph unicode="&#xcd;" horiz-adv-x="557" d="M139 1524l137 297h287l-223 -297h-201zM156 0v1393h245v-1393h-245z" />
<glyph unicode="&#xce;" horiz-adv-x="557" d="M-57 1524l258 297h164l260 -297h-230l-114 127l-111 -127h-227zM156 0v1393h245v-1393h-245z" />
<glyph unicode="&#xcf;" horiz-adv-x="557" d="M-31 1561v260h230v-260h-230zM156 0v1393h245v-1393h-245zM360 1561v260h230v-260h-230z" />
<glyph unicode="&#xd0;" horiz-adv-x="1413" d="M35 592v207h133v594h389q85 0 128 -1t105.5 -6t101.5 -15t85.5 -29t87.5 -48q118 -86 189 -241t71 -353q0 -174 -53 -318t-150 -237q-37 -36 -74.5 -61t-84.5 -41t-83.5 -25t-100.5 -13t-104 -4.5t-124 -0.5h-383v592h-133zM416 223h162q73 0 112.5 2t91 9.5t88.5 25 t68 47.5q53 54 89 158t36 227q0 266 -143 391q-58 51 -138.5 66.5t-230.5 15.5h-135v-366h405v-207h-405v-369z" />
<glyph unicode="&#xd1;" horiz-adv-x="1417" d="M156 0v1393h229l530 -797q69 -105 107 -170q0 4 -2 193t-2 307v467h244v-1393h-230l-549 838q-18 28 -40.5 65.5l-34.5 57.5t-13 20q4 -132 4 -516v-465h-243zM375 1591q7 29 24 62.5t44 69t70 58.5t93 23q49 0 133 -41q72 -39 111 -39q59 0 88 88l147 -49 q-38 -96 -91 -154.5t-140 -58.5q-55 0 -135 37q-92 45 -117 45q-52 0 -78 -88z" />
<glyph unicode="&#xd2;" horiz-adv-x="1486" d="M84 696q0 212 79.5 375t229.5 254.5t350 91.5t350.5 -91.5t230 -254.5t79.5 -375q0 -159 -44 -291.5t-126.5 -228t-208 -148.5t-281.5 -53q-207 0 -357 92t-226 254t-76 375zM352 696q0 -229 103.5 -363t287.5 -134t288 134t104 363t-105 365.5t-287 136.5t-286.5 -136.5 t-104.5 -365.5zM473 1821h287l137 -297h-201z" />
<glyph unicode="&#xd3;" horiz-adv-x="1486" d="M84 696q0 212 79.5 375t229.5 254.5t350 91.5t350.5 -91.5t230 -254.5t79.5 -375q0 -159 -44 -291.5t-126.5 -228t-208 -148.5t-281.5 -53q-207 0 -357 92t-226 254t-76 375zM352 696q0 -229 103.5 -363t287.5 -134t288 134t104 363t-105 365.5t-287 136.5t-286.5 -136.5 t-104.5 -365.5zM590 1524l137 297h287l-223 -297h-201z" />
<glyph unicode="&#xd4;" horiz-adv-x="1486" d="M84 696q0 212 79.5 375t229.5 254.5t350 91.5t350.5 -91.5t230 -254.5t79.5 -375q0 -159 -44 -291.5t-126.5 -228t-208 -148.5t-281.5 -53q-207 0 -357 92t-226 254t-76 375zM352 696q0 -229 103.5 -363t287.5 -134t288 134t104 363t-105 365.5t-287 136.5t-286.5 -136.5 t-104.5 -365.5zM408 1526l258 297h163l261 -297h-230l-115 127l-110 -127h-227z" />
<glyph unicode="&#xd5;" horiz-adv-x="1486" d="M84 696q0 212 79.5 375t229.5 254.5t350 91.5t350.5 -91.5t230 -254.5t79.5 -375q0 -159 -44 -291.5t-126.5 -228t-208 -148.5t-281.5 -53q-207 0 -357 92t-226 254t-76 375zM352 696q0 -229 103.5 -363t287.5 -134t288 134t104 363t-105 365.5t-287 136.5t-286.5 -136.5 t-104.5 -365.5zM393 1591q7 29 24 62.5t44.5 69t70.5 58.5t93 23q49 0 133 -41q72 -39 110 -39q59 0 88 88l148 -49q-38 -96 -91.5 -154.5t-140.5 -58.5q-55 0 -135 37q-6 3 -19.5 9.5t-19.5 9.5t-17 8t-17.5 7.5t-15 5.5t-15 4t-12.5 1q-52 0 -78 -88z" />
<glyph unicode="&#xd6;" horiz-adv-x="1486" d="M84 696q0 212 79.5 375t229.5 254.5t350 91.5t350.5 -91.5t230 -254.5t79.5 -375q0 -159 -44 -291.5t-126.5 -228t-208 -148.5t-281.5 -53q-207 0 -357 92t-226 254t-76 375zM352 696q0 -229 103.5 -363t287.5 -134t288 134t104 363t-105 365.5t-287 136.5t-286.5 -136.5 t-104.5 -365.5zM432 1524v260h230v-260h-230zM823 1524v260h230v-260h-230z" />
<glyph unicode="&#xd7;" horiz-adv-x="1327" d="M78 178l428 432l-428 428l155 156l429 -428l432 428l155 -154l-432 -430l432 -432l-155 -155l-432 432l-431 -432z" />
<glyph unicode="&#xd8;" horiz-adv-x="1490" d="M31 82l164 182q-107 179 -107 432q0 212 79.5 375t230 254.5t350.5 91.5q220 0 376 -110l150 168l162 -150l-156 -174q127 -187 127 -455q0 -213 -75.5 -374.5t-225.5 -254t-358 -92.5q-240 0 -404 123l-147 -164zM356 696q0 -116 29 -217l580 649q-92 70 -217 70 q-182 0 -287 -136.5t-105 -365.5zM508 283q93 -84 240 -84q184 0 287.5 134t103.5 363q0 142 -41 248z" />
<glyph unicode="&#xd9;" horiz-adv-x="1368" d="M143 578v815h244v-811q0 -101 6.5 -150.5t24.5 -85.5q61 -143 266 -143t266 143q18 36 24.5 85.5t6.5 150.5v811h244v-815q0 -149 -16.5 -233t-55.5 -152q-67 -111 -188 -164.5t-281 -53.5t-281 53.5t-188 164.5q-39 68 -55.5 152t-16.5 233zM406 1821h286l137 -297h-200 z" />
<glyph unicode="&#xda;" horiz-adv-x="1368" d="M143 578v815h244v-811q0 -101 6.5 -150.5t24.5 -85.5q61 -143 266 -143t266 143q18 36 24.5 85.5t6.5 150.5v811h244v-815q0 -149 -16.5 -233t-55.5 -152q-67 -111 -188 -164.5t-281 -53.5t-281 53.5t-188 164.5q-39 68 -55.5 152t-16.5 233zM539 1524l137 297h287 l-224 -297h-200z" />
<glyph unicode="&#xdb;" horiz-adv-x="1368" d="M143 578v815h244v-811q0 -101 6.5 -150.5t24.5 -85.5q61 -143 266 -143t266 143q18 36 24.5 85.5t6.5 150.5v811h244v-815q0 -149 -16.5 -233t-55.5 -152q-67 -111 -188 -164.5t-281 -53.5t-281 53.5t-188 164.5q-39 68 -55.5 152t-16.5 233zM358 1524l258 297h164 l260 -297h-229l-115 127l-110 -127h-228z" />
<glyph unicode="&#xdc;" horiz-adv-x="1368" d="M143 578v815h244v-811q0 -101 6.5 -150.5t24.5 -85.5q61 -143 266 -143t266 143q18 36 24.5 85.5t6.5 150.5v811h244v-815q0 -149 -16.5 -233t-55.5 -152q-67 -111 -188 -164.5t-281 -53.5t-281 53.5t-188 164.5q-39 68 -55.5 152t-16.5 233zM373 1524v260h229v-260h-229 zM764 1524v260h229v-260h-229z" />
<glyph unicode="&#xdd;" horiz-adv-x="1273" d="M4 1393h285l356 -596l363 596h282l-534 -824v-569h-246v569zM518 1524l137 297h287l-223 -297h-201z" />
<glyph unicode="&#xde;" horiz-adv-x="1234" d="M156 0v1393h245v-226h220q153 0 256 -19t178 -83q63 -54 98 -134t35 -175t-35 -177.5t-98 -136.5q-75 -64 -178 -83t-256 -19h-220v-340h-245zM401 559h246q129 0 191 27q45 22 70.5 67t25.5 103q0 57 -26 102.5t-70 67.5q-59 26 -191 26h-246v-393z" />
<glyph unicode="&#xdf;" horiz-adv-x="1058" d="M129 0v924q0 136 10.5 201t40.5 118q46 86 139.5 130t212.5 44q185 0 288.5 -93.5t103.5 -240.5q0 -84 -34 -152.5t-93 -103.5q182 -81 182 -370q0 -240 -92.5 -353.5t-306.5 -113.5q-37 0 -95 4v188q43 -6 74 -6q49 0 83.5 13.5t54 35t30 60t13.5 75t3 93.5 q0 94 -12.5 147.5t-48.5 81.5q-41 37 -147 37q-32 0 -50 -2v184q18 -2 50 -2q85 0 122 37.5t37 126.5q0 79 -45 118.5t-123 39.5q-99 0 -139 -70q-25 -42 -25 -160v-991h-233z" />
<glyph unicode="&#xe0;" horiz-adv-x="1062" d="M76 281q0 104 55 172q78 95 289 133l215 37q40 8 50.5 16t10.5 35v16q0 62 -42 92.5t-132 30.5q-199 0 -196 -170l-220 14q-1 87 32 153t92.5 105.5t135.5 58.5t166 19q388 0 388 -286v-484q0 -48 11.5 -65t51.5 -17h12v-153q-66 -11 -110 -11q-148 0 -172 101h-2 q-91 -105 -291 -105q-151 0 -247.5 78t-96.5 230zM270 1393h277l131 -263h-201zM313 283q0 -62 42 -97.5t126 -35.5q99 0 157 49.5t58 146.5v119q-59 -20 -133 -35l-90 -18q-87 -18 -123.5 -45.5t-36.5 -83.5z" />
<glyph unicode="&#xe1;" horiz-adv-x="1062" d="M76 281q0 104 55 172q78 95 289 133l215 37q40 8 50.5 16t10.5 35v16q0 62 -42 92.5t-132 30.5q-199 0 -196 -170l-220 14q-1 87 32 153t92.5 105.5t135.5 58.5t166 19q388 0 388 -286v-484q0 -48 11.5 -65t51.5 -17h12v-153q-66 -11 -110 -11q-148 0 -172 101h-2 q-91 -105 -291 -105q-151 0 -247.5 78t-96.5 230zM313 283q0 -62 42 -97.5t126 -35.5q99 0 157 49.5t58 146.5v119q-59 -20 -133 -35l-90 -18q-87 -18 -123.5 -45.5t-36.5 -83.5zM397 1130l131 263h277l-207 -263h-201z" />
<glyph unicode="&#xe2;" horiz-adv-x="1062" d="M76 281q0 104 55 172q78 95 289 133l215 37q40 8 50.5 16t10.5 35v16q0 62 -42 92.5t-132 30.5q-199 0 -196 -170l-220 14q-1 87 32 153t92.5 105.5t135.5 58.5t166 19q388 0 388 -286v-484q0 -48 11.5 -65t51.5 -17h12v-153q-66 -11 -110 -11q-148 0 -172 101h-2 q-91 -105 -291 -105q-151 0 -247.5 78t-96.5 230zM219 1130l242 263h155l244 -263h-215l-108 103l-105 -103h-213zM313 283q0 -62 42 -97.5t126 -35.5q99 0 157 49.5t58 146.5v119q-59 -20 -133 -35l-90 -18q-87 -18 -123.5 -45.5t-36.5 -83.5z" />
<glyph unicode="&#xe3;" horiz-adv-x="1062" d="M76 281q0 104 55 172q78 95 289 133l215 37q40 8 50.5 16t10.5 35v16q0 62 -42 92.5t-132 30.5q-199 0 -196 -170l-220 14q-1 87 32 153t92.5 105.5t135.5 58.5t166 19q388 0 388 -286v-484q0 -48 11.5 -65t51.5 -17h12v-153q-66 -11 -110 -11q-148 0 -172 101h-2 q-91 -105 -291 -105q-151 0 -247.5 78t-96.5 230zM178 1161q7 29 24 62.5t44.5 69t70.5 58.5t93 23q49 0 133 -41q72 -39 110 -39q59 0 88 88l148 -49q-38 -96 -91.5 -154.5t-140.5 -58.5q-55 0 -135 37q-6 3 -19.5 9.5t-19.5 9.5t-17 8t-17.5 7.5t-15 5.5t-15 4t-12.5 1 q-52 0 -78 -88zM313 283q0 -62 42 -97.5t126 -35.5q99 0 157 49.5t58 146.5v119q-59 -20 -133 -35l-90 -18q-87 -18 -123.5 -45.5t-36.5 -83.5z" />
<glyph unicode="&#xe4;" horiz-adv-x="1062" d="M76 281q0 104 55 172q78 95 289 133l215 37q40 8 50.5 16t10.5 35v16q0 62 -42 92.5t-132 30.5q-199 0 -196 -170l-220 14q-1 87 32 153t92.5 105.5t135.5 58.5t166 19q388 0 388 -286v-484q0 -48 11.5 -65t51.5 -17h12v-153q-66 -11 -110 -11q-148 0 -172 101h-2 q-91 -105 -291 -105q-151 0 -247.5 78t-96.5 230zM238 1130v242h221v-242h-221zM313 283q0 -62 42 -97.5t126 -35.5q99 0 157 49.5t58 146.5v119q-59 -20 -133 -35l-90 -18q-87 -18 -123.5 -45.5t-36.5 -83.5zM621 1130v242h221v-242h-221z" />
<glyph unicode="&#xe5;" horiz-adv-x="1062" d="M76 281q0 104 55 172q78 95 289 133l215 37q40 8 50.5 16t10.5 35v16q0 62 -42 92.5t-132 30.5q-199 0 -196 -170l-220 14q-1 87 32 153t92.5 105.5t135.5 58.5t166 19q388 0 388 -286v-484q0 -48 11.5 -65t51.5 -17h12v-153q-66 -11 -110 -11q-148 0 -172 101h-2 q-91 -105 -291 -105q-151 0 -247.5 78t-96.5 230zM313 283q0 -62 42 -97.5t126 -35.5q99 0 157 49.5t58 146.5v119q-59 -20 -133 -35l-90 -18q-87 -18 -123.5 -45.5t-36.5 -83.5zM334 1245q0 85 58 142t143 57t142.5 -57t57.5 -142t-57.5 -141.5t-142.5 -56.5t-143 57 t-58 141zM461 1245q0 -30 20.5 -50.5t50.5 -20.5t51 20.5t21 50.5t-21 51t-51 21t-50.5 -20.5t-20.5 -51.5z" />
<glyph unicode="&#xe6;" horiz-adv-x="1697" d="M76 283q0 70 24.5 123t72.5 87.5t107 56t140 36.5l215 37q40 8 50.5 16t10.5 35v16q0 62 -42 92.5t-132 30.5q-199 0 -196 -170l-220 14q-1 87 32 153t92.5 105.5t135.5 58.5t166 19q228 0 322 -102q126 106 311 106q219 0 340 -146t121 -378q0 -8 -1 -24.5t-1 -24.5 h-711q13 -108 81.5 -178t191.5 -70q49 0 93 13.5t72 30.5t54.5 44.5t37.5 42.5t25 37l162 -123q-17 -27 -37 -52.5t-61.5 -63t-88.5 -64t-119 -46.5t-153 -20q-122 0 -219 48t-141 100q-134 -150 -377 -150q-164 0 -261 78t-97 232zM313 283q0 -62 42 -97.5t126 -35.5 q99 0 157 49.5t58 146.5v119q-59 -20 -133 -35l-90 -18q-87 -18 -123.5 -45.5t-36.5 -83.5zM920 598h475q-4 95 -68 154t-162 59q-99 0 -169.5 -62.5t-75.5 -150.5z" />
<glyph unicode="&#xe7;" horiz-adv-x="1034" d="M74 483q0 120 37 218t102 162.5t152 99t188 34.5q162 0 271.5 -75.5t156.5 -198.5l-195 -102q-28 82 -84.5 129t-142.5 47q-118 0 -186 -82.5t-68 -227.5t68.5 -227t185.5 -82q168 0 234 166l188 -100q-19 -43 -51 -85t-80.5 -84t-121.5 -69.5t-157 -30.5l-39 -36 q75 -2 122.5 -42t47.5 -114q0 -88 -61.5 -135t-148.5 -47q-62 0 -115 24l31 94q41 -14 77 -14q37 0 60.5 18t23.5 48q0 32 -23.5 47.5t-58.5 15.5q-34 0 -75 -20l-47 86l96 82q-178 27 -282.5 157.5t-104.5 343.5z" />
<glyph unicode="&#xe8;" horiz-adv-x="1085" d="M74 496q0 223 136 362t343 139q219 0 340 -146t121 -378q0 -8 -1 -24.5t-1 -24.5h-711q13 -108 80.5 -178t189.5 -70q179 0 285 168l162 -123q-17 -27 -37 -52.5t-61.5 -63t-88.5 -64t-119 -46.5t-153 -20q-218 0 -351.5 143t-133.5 378zM287 1393h276l131 -263h-200z M307 598h475q-5 95 -68 154t-161 59q-99 0 -170 -62.5t-76 -150.5z" />
<glyph unicode="&#xe9;" horiz-adv-x="1085" d="M74 496q0 223 136 362t343 139q219 0 340 -146t121 -378q0 -8 -1 -24.5t-1 -24.5h-711q13 -108 80.5 -178t189.5 -70q179 0 285 168l162 -123q-17 -27 -37 -52.5t-61.5 -63t-88.5 -64t-119 -46.5t-153 -20q-218 0 -351.5 143t-133.5 378zM307 598h475q-5 95 -68 154 t-161 59q-99 0 -170 -62.5t-76 -150.5zM434 1130l131 263h277l-207 -263h-201z" />
<glyph unicode="&#xea;" horiz-adv-x="1085" d="M74 496q0 223 136 362t343 139q219 0 340 -146t121 -378q0 -8 -1 -24.5t-1 -24.5h-711q13 -108 80.5 -178t189.5 -70q179 0 285 168l162 -123q-17 -27 -37 -52.5t-61.5 -63t-88.5 -64t-119 -46.5t-153 -20q-218 0 -351.5 143t-133.5 378zM240 1130l241 263h156l244 -263 h-215l-109 103l-104 -103h-213zM307 598h475q-5 95 -68 154t-161 59q-99 0 -170 -62.5t-76 -150.5z" />
<glyph unicode="&#xeb;" horiz-adv-x="1085" d="M74 496q0 223 136 362t343 139q219 0 340 -146t121 -378q0 -8 -1 -24.5t-1 -24.5h-711q13 -108 80.5 -178t189.5 -70q179 0 285 168l162 -123q-17 -27 -37 -52.5t-61.5 -63t-88.5 -64t-119 -46.5t-153 -20q-218 0 -351.5 143t-133.5 378zM260 1130v242h221v-242h-221z M307 598h475q-5 95 -68 154t-161 59q-99 0 -170 -62.5t-76 -150.5zM643 1130v242h221v-242h-221z" />
<glyph unicode="&#xec;" horiz-adv-x="491" d="M-55 1393h276l131 -263h-200zM129 0v975h233v-975h-233z" />
<glyph unicode="&#xed;" horiz-adv-x="491" d="M129 0v975h233v-975h-233zM137 1130l131 263h277l-207 -263h-201z" />
<glyph unicode="&#xee;" horiz-adv-x="491" d="M-76 1130l242 263h156l243 -263h-215l-108 103l-105 -103h-213zM129 0v975h233v-975h-233z" />
<glyph unicode="&#xef;" horiz-adv-x="491" d="M-51 1130v242h221v-242h-221zM129 0v975h233v-975h-233zM332 1130v242h221v-242h-221z" />
<glyph unicode="&#xf0;" horiz-adv-x="1107" d="M74 500q0 234 133 372t340 138q88 0 176 -39q-31 88 -72 145l-311 -102l-59 160l264 81q-38 44 -127 125l168 105q94 -94 155 -170l209 71l58 -155l-170 -55q190 -311 190 -644q0 -118 -30 -218.5t-87.5 -176.5t-150.5 -119t-211 -43q-211 0 -343 144t-132 381zM301 502 q0 -155 68 -244.5t180 -89.5q115 0 182.5 89t67.5 245q0 154 -66.5 236.5t-183.5 82.5q-116 0 -182 -83t-66 -236z" />
<glyph unicode="&#xf1;" horiz-adv-x="1114" d="M125 0v969h233v-119q37 65 118.5 107t191.5 42q156 0 241 -94q48 -55 67 -126.5t19 -225.5v-553h-233v494q0 126 -17 186q-32 113 -172 113q-105 0 -160 -74t-55 -197v-522h-233zM258 1163q7 29 24 62.5t44 69t70 58.5t93 23t134 -41q72 -39 110 -39q59 0 88 88l148 -49 q-38 -96 -91.5 -154.5t-140.5 -58.5q-55 0 -135 37q-92 45 -117 45q-51 0 -77 -88z" />
<glyph unicode="&#xf2;" horiz-adv-x="1122" d="M74 483q0 235 132 374.5t355 139.5t355.5 -139.5t132.5 -374.5q0 -233 -132 -370.5t-356 -137.5t-355.5 137.5t-131.5 370.5zM289 1393h276l131 -263h-200zM305 487q0 -144 71 -227.5t185 -83.5t185 84t71 227q0 146 -69.5 229t-186.5 83t-186.5 -83.5t-69.5 -228.5z" />
<glyph unicode="&#xf3;" horiz-adv-x="1122" d="M74 483q0 235 132 374.5t355 139.5t355.5 -139.5t132.5 -374.5q0 -233 -132 -370.5t-356 -137.5t-355.5 137.5t-131.5 370.5zM305 487q0 -144 71 -227.5t185 -83.5t185 84t71 227q0 146 -69.5 229t-186.5 83t-186.5 -83.5t-69.5 -228.5zM434 1130l131 263h277l-207 -263 h-201z" />
<glyph unicode="&#xf4;" horiz-adv-x="1122" d="M74 483q0 235 132 374.5t355 139.5t355.5 -139.5t132.5 -374.5q0 -233 -132 -370.5t-356 -137.5t-355.5 137.5t-131.5 370.5zM248 1130l241 263h156l244 -263h-215l-109 103l-104 -103h-213zM305 487q0 -144 71 -227.5t185 -83.5t185 84t71 227q0 146 -69.5 229 t-186.5 83t-186.5 -83.5t-69.5 -228.5z" />
<glyph unicode="&#xf5;" horiz-adv-x="1122" d="M74 483q0 235 132 374.5t355 139.5t355.5 -139.5t132.5 -374.5q0 -233 -132 -370.5t-356 -137.5t-355.5 137.5t-131.5 370.5zM213 1161q7 29 24 62.5t44 69t70 58.5t93 23t134 -41q72 -39 110 -39q59 0 88 88l148 -49q-38 -96 -91.5 -154.5t-140.5 -58.5q-55 0 -135 37 q-92 45 -117 45q-52 0 -78 -88zM305 487q0 -144 71 -227.5t185 -83.5t185 84t71 227q0 146 -69.5 229t-186.5 83t-186.5 -83.5t-69.5 -228.5z" />
<glyph unicode="&#xf6;" horiz-adv-x="1122" d="M74 483q0 235 132 374.5t355 139.5t355.5 -139.5t132.5 -374.5q0 -233 -132 -370.5t-356 -137.5t-355.5 137.5t-131.5 370.5zM256 1130v242h221v-242h-221zM305 487q0 -144 71 -227.5t185 -83.5t185 84t71 227q0 146 -69.5 229t-186.5 83t-186.5 -83.5t-69.5 -228.5z M639 1130v242h221v-242h-221z" />
<glyph unicode="&#xf7;" horiz-adv-x="1552" d="M88 379v217h1376v-217h-1376zM643 0v270h264v-270h-264zM643 705v270h264v-270h-264z" />
<glyph unicode="&#xf8;" horiz-adv-x="1122" d="M74 483q0 235 132 374.5t355 139.5q125 0 221 -47l113 146l162 -131l-111 -144q103 -134 103 -338q0 -233 -132 -370.5t-356 -137.5q-125 0 -227 45l-90 -116l-168 131l92 121q-94 129 -94 327zM305 487q0 -69 19 -131l329 426q-49 17 -92 17q-117 0 -186.5 -83.5 t-69.5 -228.5zM465 195q46 -19 96 -19q114 0 185 84t71 227q0 73 -20 138z" />
<glyph unicode="&#xf9;" horiz-adv-x="1097" d="M119 422v553h233v-518q0 -134 25 -189q39 -86 149 -86q105 0 157 73.5t52 197.5v522h234v-975h-234v125q-37 -65 -114 -107.5t-177 -42.5q-153 0 -239 95q-48 55 -67 126.5t-19 225.5zM291 1393h276l131 -263h-200z" />
<glyph unicode="&#xfa;" horiz-adv-x="1097" d="M119 422v553h233v-518q0 -134 25 -189q39 -86 149 -86q105 0 157 73.5t52 197.5v522h234v-975h-234v125q-37 -65 -114 -107.5t-177 -42.5q-153 0 -239 95q-48 55 -67 126.5t-19 225.5zM420 1130l131 263h276l-206 -263h-201z" />
<glyph unicode="&#xfb;" horiz-adv-x="1097" d="M119 422v553h233v-518q0 -134 25 -189q39 -86 149 -86q105 0 157 73.5t52 197.5v522h234v-975h-234v125q-37 -65 -114 -107.5t-177 -42.5q-153 0 -239 95q-48 55 -67 126.5t-19 225.5zM231 1130l242 263h156l243 -263h-215l-108 103l-105 -103h-213z" />
<glyph unicode="&#xfc;" horiz-adv-x="1097" d="M119 422v553h233v-518q0 -134 25 -189q39 -86 149 -86q105 0 157 73.5t52 197.5v522h234v-975h-234v125q-37 -65 -114 -107.5t-177 -42.5q-153 0 -239 95q-48 55 -67 126.5t-19 225.5zM256 1130v242h221v-242h-221zM639 1130v242h221v-242h-221z" />
<glyph unicode="&#xfd;" horiz-adv-x="929" d="M12 975h244l160 -526q13 -39 26 -89.5t20 -81.5l7 -30h2q24 111 49 201l139 526h234l-326 -1092q-47 -155 -102 -213q-38 -41 -91 -58.5t-136 -17.5q-60 0 -127 13v190q42 -10 79 -10q71 0 103.5 29t52.5 94l16 59zM336 1130l131 263h276l-206 -263h-201z" />
<glyph unicode="&#xfe;" horiz-adv-x="1155" d="M129 -387v1780h233v-525q42 56 119 93.5t168 37.5q196 0 314 -143.5t118 -372.5q0 -222 -119.5 -365t-312.5 -143q-179 0 -287 127v-489h-233zM352 487q0 -140 68.5 -224.5t179.5 -84.5q113 0 180.5 82.5t67.5 226.5q0 146 -67 229t-181 83q-111 0 -179.5 -86t-68.5 -226 z" />
<glyph unicode="&#xff;" horiz-adv-x="929" d="M12 975h244l160 -526q13 -39 26 -89.5t20 -81.5l7 -30h2q24 111 49 201l139 526h234l-326 -1092q-47 -155 -102 -213q-38 -41 -91 -58.5t-136 -17.5q-60 0 -127 13v190q42 -10 79 -10q71 0 103.5 29t52.5 94l16 59zM160 1130v261h229v-261h-229zM551 1130v261h229v-261 h-229z" />
<glyph unicode="&#x152;" horiz-adv-x="1947" d="M86 674q0 327 181.5 513.5t496.5 186.5q117 0 223 -20h838v-207h-695v-344h633v-199h-633v-395h742v-209h-885q-103 -20 -225 -20q-314 0 -495 179t-181 515zM319 678q0 -238 126.5 -365t324.5 -127q92 0 139 13v948q-80 12 -141 12q-210 0 -329.5 -120.5t-119.5 -360.5z " />
<glyph unicode="&#x153;" horiz-adv-x="1800" d="M74 483q0 235 132 374.5t355 139.5q229 0 359 -145q136 145 348 145q219 0 340 -146t121 -378q0 -8 -1.5 -24.5t-1.5 -24.5h-710q13 -109 81 -178.5t191 -69.5q177 0 283 168l162 -123q-17 -27 -37 -52.5t-61.5 -63t-88.5 -64t-119 -46.5t-153 -20q-216 0 -352 142 q-136 -142 -361 -142q-224 0 -355.5 137.5t-131.5 370.5zM305 487q0 -144 71 -227.5t185 -83.5t185 84t71 227q0 146 -69.5 229t-186.5 83t-186.5 -83.5t-69.5 -228.5zM1022 598h475q-5 95 -68 154t-161 59q-99 0 -170 -62.5t-76 -150.5z" />
<glyph unicode="&#x178;" horiz-adv-x="1273" d="M4 1393h285l356 -596l363 596h282l-534 -824v-569h-246v569zM342 1524v260h229v-260h-229zM733 1524v260h230v-260h-230z" />
<glyph unicode="&#x2c6;" horiz-adv-x="1024" d="M190 1130l242 263h156l243 -263h-215l-108 103l-105 -103h-213z" />
<glyph unicode="&#x2dc;" horiz-adv-x="1024" d="M160 1161q7 29 24 62.5t44 69t70 58.5t93 23q49 0 133 -41q72 -39 111 -39q59 0 88 88l147 -49q-38 -96 -91 -154.5t-140 -58.5q-55 0 -135 37q-92 45 -117 45q-52 0 -78 -88z" />
<glyph unicode="&#x2000;" horiz-adv-x="954" />
<glyph unicode="&#x2001;" horiz-adv-x="1909" />
<glyph unicode="&#x2002;" horiz-adv-x="954" />
<glyph unicode="&#x2003;" horiz-adv-x="1909" />
<glyph unicode="&#x2004;" horiz-adv-x="636" />
<glyph unicode="&#x2005;" horiz-adv-x="477" />
<glyph unicode="&#x2006;" horiz-adv-x="318" />
<glyph unicode="&#x2007;" horiz-adv-x="318" />
<glyph unicode="&#x2008;" horiz-adv-x="238" />
<glyph unicode="&#x2009;" horiz-adv-x="381" />
<glyph unicode="&#x200a;" horiz-adv-x="106" />
<glyph unicode="&#x2010;" horiz-adv-x="833" d="M125 438v221h584v-221h-584z" />
<glyph unicode="&#x2011;" horiz-adv-x="833" d="M125 438v221h584v-221h-584z" />
<glyph unicode="&#x2012;" horiz-adv-x="833" d="M125 438v221h584v-221h-584z" />
<glyph unicode="&#x2013;" horiz-adv-x="1284" d="M121 432v227h1042v-227h-1042z" />
<glyph unicode="&#x2014;" horiz-adv-x="1673" d="M121 432v227h1431v-227h-1431z" />
<glyph unicode="&#x2018;" horiz-adv-x="483" d="M106 842v209q0 33 5 116q11 121 67.5 182t192.5 64v-133q-61 -5 -89 -35.5t-28 -109.5v-25h117v-268h-265z" />
<glyph unicode="&#x2019;" horiz-adv-x="475" d="M115 821v133q61 5 88.5 36t27.5 110v24h-116v269h264v-209q0 -51 -4 -117q-11 -121 -67.5 -182t-192.5 -64z" />
<glyph unicode="&#x201a;" horiz-adv-x="493" d="M115 0v268h264v-209q0 -50 -4 -116q-11 -121 -67.5 -182t-192.5 -64v133q61 5 88.5 35.5t27.5 109.5v25h-116z" />
<glyph unicode="&#x201c;" horiz-adv-x="851" d="M106 842v209q0 33 5 116q11 121 67.5 182t192.5 64v-133q-61 -5 -89 -35.5t-28 -109.5v-25h117v-268h-265zM475 842v209q0 50 4 116q11 121 67.5 182t192.5 64v-133q-61 -5 -88.5 -35.5t-27.5 -109.5v-25h116v-268h-264z" />
<glyph unicode="&#x201d;" horiz-adv-x="843" d="M115 821v133q61 5 88.5 36t27.5 110v24h-116v269h264v-209q0 -51 -4 -117q-11 -121 -67.5 -182t-192.5 -64zM483 821v133q61 5 89 36t28 110v24h-117v269h265v-209q0 -34 -5 -117q-11 -121 -67.5 -182t-192.5 -64z" />
<glyph unicode="&#x201e;" horiz-adv-x="862" d="M115 0v268h264v-209q0 -50 -4 -116q-11 -121 -67.5 -182t-192.5 -64v133q61 5 88.5 35.5t27.5 109.5v25h-116zM483 0v268h265v-209q0 -33 -5 -116q-11 -121 -67.5 -182t-192.5 -64v133q61 5 89 35.5t28 109.5v25h-117z" />
<glyph unicode="&#x2022;" horiz-adv-x="864" d="M125 682q0 129 89.5 219t217.5 90q129 0 218 -90t89 -219q0 -128 -89 -217.5t-218 -89.5q-128 0 -217.5 89.5t-89.5 217.5z" />
<glyph unicode="&#x2026;" horiz-adv-x="1859" d="M113 0v270h264v-270h-264zM797 0v270h264v-270h-264zM1483 0v270h264v-270h-264z" />
<glyph unicode="&#x202f;" horiz-adv-x="381" />
<glyph unicode="&#x2039;" horiz-adv-x="540" d="M92 446v297l332 285v-270l-195 -156l195 -168v-266z" />
<glyph unicode="&#x203a;" horiz-adv-x="540" d="M117 168v266l194 168l-194 156v270l332 -285v-297z" />
<glyph unicode="&#x205f;" horiz-adv-x="477" />
<glyph unicode="&#x20ac;" horiz-adv-x="1265" d="M61 412l68 200h94v129h-155l67 201h111q18 98 54 180.5t94.5 151.5t147 108t199.5 39q172 0 285.5 -94.5t157.5 -243.5l-201 -118q-54 237 -242 237q-103 0 -162 -71t-79 -189h444l-67 -201h-398v-129h359l-68 -200h-262q24 -103 78 -160t155 -57q95 0 148.5 54.5 t83.5 151.5l219 -82q-48 -158 -159.5 -251t-297.5 -93q-105 0 -189.5 32.5t-142.5 92t-95.5 137.5t-55.5 175h-191z" />
<glyph unicode="&#x2122;" horiz-adv-x="1798" d="M102 1223v170h674v-170h-246v-707h-182v707h-246zM850 512v881h215l113 -318q20 -58 39 -120t29 -95l9 -33h5q28 127 69 248l105 318h221v-881h-172v324l4 202h-4q-31 -112 -60 -204l-98 -322h-139l-111 344q-12 35 -24.5 81.5t-19.5 75.5l-7 29h-4q4 -135 4 -196v-334 h-174z" />
<glyph unicode="&#xe000;" horiz-adv-x="975" d="M0 0v975h975v-975h-975z" />
</font>
</defs>
</svg>
