<?xml version="1.0" standalone="no"?>
<!DOCTYPE svg PUBLIC "-//W3C//DTD SVG 1.1//EN" "http://www.w3.org/Graphics/SVG/1.1/DTD/svg11.dtd" >
<svg xmlns="http://www.w3.org/2000/svg">
<metadata></metadata>
<defs>
<font id="theinhardtthin" horiz-adv-x="1208" >
<font-face units-per-em="2048" ascent="1642" descent="-406" />
<missing-glyph horiz-adv-x="409" />
<glyph unicode="&#xfb01;" horiz-adv-x="1052" d="M39 905v70h223v221q0 109 45 160q53 61 170 61q62 0 127 -18v-74q-73 25 -131 25q-70 0 -104 -37q-31 -34 -31 -111v-227h266v-70h-266v-905h-76v905h-223zM823 0v975h76v-975h-76zM823 1178v215h76v-215h-76z" />
<glyph unicode="&#xfb02;" horiz-adv-x="1069" d="M39 905v70h223v221q0 109 45 160q53 61 170 61q62 0 127 -18v-74q-73 25 -131 25q-70 0 -104 -37q-31 -34 -31 -111v-227h266v-70h-266v-905h-76v905h-223zM823 0v1393h76v-1393h-76z" />
<glyph horiz-adv-x="2048" />
<glyph horiz-adv-x="2048" />
<glyph unicode="&#xd;" horiz-adv-x="2048" />
<glyph unicode=" "  horiz-adv-x="409" />
<glyph unicode="&#x09;" horiz-adv-x="409" />
<glyph unicode="&#xa0;" horiz-adv-x="409" />
<glyph unicode="!" horiz-adv-x="419" d="M158 0v233h104v-233h-104zM170 690v703h80v-703l-12 -330h-56z" />
<glyph unicode="&#x22;" horiz-adv-x="585" d="M133 1188v205h76v-205l-16 -352h-43zM377 1188v205h76v-205l-17 -352h-43z" />
<glyph unicode="#" horiz-adv-x="1409" d="M88 426v70h346l66 383h-369v71h381l76 443h78l-76 -443h303l76 443h78l-76 -443h350v-71h-363l-65 -383h385v-70h-397l-72 -426h-78l72 426h-303l-72 -426h-78l72 426h-334zM512 496h303l66 383h-303z" />
<glyph unicode="$" horiz-adv-x="1163" d="M70 287l65 51q51 -105 157 -180t251 -88v624l-51 13q-65 14 -114.5 29.5t-99 42.5t-81.5 62t-52 88t-20 120q0 151 114 243.5t304 100.5v184h75v-184q252 -16 402 -193l-57 -61q-136 168 -345 186v-569l87 -19q183 -38 280.5 -120.5t97.5 -233.5q0 -170 -123.5 -274.5 t-341.5 -110.5v-176h-75v178q-171 11 -292.5 93t-180.5 194zM207 1057q0 -122 74.5 -184.5t234.5 -94.5l27 -6v553q-150 -6 -243 -77t-93 -191zM618 68q183 4 284.5 89t101.5 220q0 118 -81.5 187.5t-240.5 101.5l-64 12v-610z" />
<glyph unicode="%" horiz-adv-x="1816" d="M78 963q0 71 9.5 134t32.5 122t58.5 101t91 67.5t125.5 25.5q72 0 128.5 -27t90.5 -70t56 -103.5t30.5 -121t8.5 -128.5q0 -87 -20 -163t-58 -134.5t-100 -92.5t-140 -34q-83 0 -145 34.5t-98 94.5t-53 134t-17 161zM154 979q0 -107 24 -189.5t79 -134t136 -51.5 q124 0 182 97t58 260q0 183 -61 285t-179 102q-117 0 -178 -100.5t-61 -268.5zM498 0l723 1393h82l-725 -1393h-80zM1108 414q0 71 9.5 134t32.5 122t58.5 101t91 67.5t125.5 25.5q72 0 128.5 -27t90.5 -70t56 -103.5t30.5 -121t8.5 -128.5q0 -87 -20 -163t-58 -134.5 t-100 -92.5t-140 -34q-83 0 -145 34.5t-98 94.5t-53 134t-17 161zM1184 430q0 -107 24 -189.5t79 -134t136 -51.5q124 0 182 97t58 260q0 183 -61 285t-179 102q-117 0 -178 -100.5t-61 -268.5z" />
<glyph unicode="&#x26;" horiz-adv-x="1234" d="M88 342q0 56 12.5 103.5t40.5 88t58 71.5t80.5 64.5t90.5 56t105 56.5q-58 68 -86.5 105t-58 85t-40.5 91t-11 94q0 110 85.5 186t225.5 76q147 0 225 -74.5t78 -187.5q0 -234 -307 -393l358 -426q69 146 92 307l68 -35q-27 -174 -111 -329l236 -281h-99l-180 213 q-70 -119 -186.5 -178.5t-255.5 -59.5q-118 0 -211.5 40.5t-151 125t-57.5 201.5zM166 352q0 -76 28.5 -136.5t77 -98t109.5 -57t129 -19.5q124 0 230.5 57.5t164.5 167.5l-387 465q-154 -80 -213 -124q-136 -111 -139 -255zM358 1155q0 -31 8 -62t18 -54.5t32.5 -56t37 -51 t46.5 -57t47 -57.5q125 63 197.5 147.5t72.5 184.5q0 104 -65.5 156.5t-161.5 52.5q-101 0 -166.5 -54t-65.5 -149z" />
<glyph unicode="'" horiz-adv-x="342" d="M133 1188v205h76v-205l-16 -352h-43z" />
<glyph unicode="(" horiz-adv-x="468" d="M102 522q0 228 66 455t186 430l68 -8q-240 -412 -240 -877q0 -463 236 -848l-76 -6q-114 194 -177 413.5t-63 440.5z" />
<glyph unicode=")" horiz-adv-x="468" d="M47 1399l68 8q120 -203 186 -430t66 -455q0 -221 -63 -440.5t-177 -413.5l-76 6q236 385 236 848q0 465 -240 877z" />
<glyph unicode="*" horiz-adv-x="909" d="M88 1096l21 69l311 -98v326h72v-326l303 113l26 -68l-307 -113l199 -256l-58 -45l-198 258l-187 -266l-59 41l186 268z" />
<glyph unicode="+" horiz-adv-x="1343" d="M72 569v68h565v577h68v-577h567v-68h-567v-569h-68v569h-565z" />
<glyph unicode="," horiz-adv-x="368" d="M121 -248q35 33 46 83t11 145v20h-43v233h98v-249q0 -110 -14 -170q-24 -95 -98 -131v69z" />
<glyph unicode="-" horiz-adv-x="833" d="M133 510v74h567v-74h-567z" />
<glyph unicode="." horiz-adv-x="368" d="M135 0v233h98v-233h-98z" />
<glyph unicode="/" horiz-adv-x="921" d="M51 0l737 1393h82l-735 -1393h-84z" />
<glyph unicode="0" d="M109 694q0 156 30 285.5t89 228.5t155 154t221 55q126 0 222 -55t155.5 -154t89 -228.5t29.5 -285.5q0 -119 -15.5 -221.5t-52.5 -195.5t-93 -159t-141.5 -104.5t-193.5 -38.5t-193 38.5t-141 104.5t-93 159t-52.5 196t-15.5 221zM190 698q0 -106 11.5 -197t41 -176.5 t75.5 -145.5t119 -96t167 -36q95 0 168 36t119 96t75 145.5t40.5 176t11.5 197.5q0 138 -25.5 254.5t-75 205t-130 138.5t-183.5 50t-183 -50t-130 -138.5t-75.5 -205t-25.5 -254.5z" />
<glyph unicode="1" d="M315 1028v68h29q158 0 238 59q98 71 104 238h68v-1393h-78v1155q-75 -129 -305 -129q-38 0 -56 2z" />
<glyph unicode="2" d="M147 0v61q104 68 251.5 179t265.5 215q69 61 115 109t90.5 112t66.5 136t22 155q0 178 -103.5 278.5t-262.5 100.5q-167 0 -259.5 -98t-92.5 -244q0 -113 53 -222l-90 21q-45 96 -45 201q0 112 50 205t151 150.5t237 57.5q110 0 197 -35.5t141 -97t82 -141.5t28 -172 q0 -83 -24.5 -162t-59 -138t-95 -125.5t-107 -108t-121.5 -103.5q-100 -81 -209.5 -159t-146.5 -99v-2h772v-74h-906z" />
<glyph unicode="3" d="M135 336l72 51q2 -73 24 -131.5t58 -96.5t85 -64t102 -37t112 -11q162 0 271.5 89.5t109.5 244.5q0 203 -170 281q-53 24 -120.5 33.5t-209.5 9.5h-90v65h72q122 0 188 8.5t119 30.5q80 33 128 96t48 154q0 128 -91.5 207.5t-252.5 79.5q-163 0 -261 -82.5t-98 -202.5 l-65 45q1 35 14 74t45 82t78.5 77t121 56t165.5 22q201 0 312.5 -99t111.5 -249q0 -133 -82 -219.5t-209 -104.5v-2q61 -5 117.5 -28.5t104.5 -66t77 -113t29 -158.5q0 -176 -128.5 -289t-336.5 -113q-195 0 -317 96t-134 265z" />
<glyph unicode="4" d="M94 387v59l643 959h62v-944h307v-74h-307v-387h-78v387h-627zM188 461h533v528q0 193 6 281h-2q-10 -19 -29 -50.5t-37.5 -59t-53 -79t-56.5 -84.5z" />
<glyph unicode="5" d="M154 287l71 51q10 -56 36.5 -106t70 -92.5t111.5 -67.5t151 -25q175 0 282 113t107 307q0 169 -98.5 279t-276.5 110q-130 0 -225.5 -76.5t-124.5 -201.5l-61 20l43 795h731v-74h-660l-32 -561l2 -2q36 66 129.5 119t222.5 53q192 0 311 -123t119 -338t-124.5 -353.5 t-344.5 -138.5q-166 0 -281.5 83t-158.5 229z" />
<glyph unicode="6" d="M141 688q0 346 130.5 537.5t377.5 191.5q161 0 262 -77t136 -207l-72 -56q-5 32 -15.5 63.5t-35.5 70.5t-59 67.5t-91 48t-127 19.5q-208 0 -318 -175t-110 -481h2q58 97 171 155t251 58q70 0 134 -17t120 -53.5t97 -88.5t65 -126.5t24 -162.5q0 -95 -29.5 -180.5 t-84 -153t-140.5 -107t-192 -39.5q-234 0 -365 172.5t-131 540.5zM223 588q14 -266 119 -403.5t295 -137.5q158 0 262.5 108t104.5 294q0 97 -31 172t-83.5 120t-118 67.5t-140.5 22.5q-141 0 -251 -68.5t-157 -174.5z" />
<glyph unicode="7" d="M158 991v402h946v-60q-215 -318 -334 -608q-156 -384 -178 -725h-84q23 357 192 752q113 267 316 569h-783v-330h-75z" />
<glyph unicode="8" d="M121 369q0 136 81 232.5t220 133.5q-122 38 -192 123t-70 209q0 161 121.5 255.5t322.5 94.5t323 -94.5t122 -255.5q0 -124 -70.5 -209t-192.5 -123q139 -37 220 -133.5t81 -232.5q0 -170 -108 -275q-132 -119 -375 -119t-375 119q-108 105 -108 275zM203 371 q0 -156 103.5 -240t297.5 -84t298 84t104 240q0 155 -110.5 243t-291.5 88t-291 -88t-110 -243zM240 1065q0 -139 101.5 -218t262.5 -79t263 79t102 218q0 133 -94.5 207t-270.5 74t-270 -74t-94 -207z" />
<glyph unicode="9" d="M123 938q0 95 29.5 180.5t84 152.5t140.5 106.5t192 39.5q234 0 365 -172t131 -540q0 -346 -130.5 -538t-377.5 -192q-161 0 -261.5 77t-135.5 208l71 55q5 -32 15.5 -63.5t35.5 -70t59 -67t91 -48t127 -19.5q208 0 318 174.5t110 480.5h-2q-58 -97 -171 -155t-251 -58 q-88 0 -166 28t-139.5 82t-98 141.5t-36.5 197.5zM203 944q0 -97 30.5 -172.5t83.5 -120.5t118 -67.5t140 -22.5q140 0 250.5 69t157.5 175q-14 266 -119 403.5t-295 137.5q-158 0 -262 -108t-104 -294z" />
<glyph unicode=":" horiz-adv-x="401" d="M152 0v233h98v-233h-98zM152 741v234h98v-234h-98z" />
<glyph unicode=";" horiz-adv-x="411" d="M139 -248q35 34 46.5 84t11.5 144v20h-43v233h98v-249q0 -110 -14 -170q-24 -94 -99 -131v69zM154 741v234h98v-234h-98z" />
<glyph unicode="&#x3c;" horiz-adv-x="1595" d="M59 649v78l1442 678v-82l-1343 -635l1343 -639v-82z" />
<glyph unicode="=" horiz-adv-x="1779" d="M201 383v68h1378v-68h-1378zM201 739v68h1378v-68h-1378z" />
<glyph unicode="&#x3e;" horiz-adv-x="1595" d="M94 -33v82l1344 639l-1344 635v82l1442 -678v-78z" />
<glyph unicode="?" horiz-adv-x="917" d="M70 1047q0 162 105.5 266t281.5 104q183 0 287 -103.5t104 -260.5q0 -63 -13 -116t-40 -97.5t-58 -80t-78 -77.5l-49 -43q-99 -89 -122.5 -134t-24.5 -153v-35h-82v60q0 87 25.5 143t115.5 137l78 70q83 73 124.5 148t41.5 169q0 133 -83 219.5t-228 86.5t-225 -89.5 t-80 -220.5q0 -94 34 -166l-88 19q-26 77 -26 154zM371 0v199h104v-199h-104z" />
<glyph unicode="@" horiz-adv-x="1656" d="M104 467q0 233 96.5 415.5t269.5 283t394 100.5q140 0 256 -41t194 -109t132 -158t78 -186.5t24 -196.5q0 -144 -38.5 -264.5t-115 -195t-177.5 -74.5q-70 0 -107 39.5t-37 105.5v4q-84 -157 -282 -157q-135 0 -207 72.5t-72 187.5q0 107 70 164.5t215 83.5l231 41 q27 5 36 13.5t9 31.5v32q0 108 -54.5 158.5t-172.5 50.5q-124 0 -181 -59.5t-57 -175.5l-67 43q-1 123 85.5 191.5t221.5 68.5q295 0 295 -264v-449q0 -60 18 -89.5t66 -29.5q70 0 128 66t89 171.5t31 223.5q0 92 -21.5 180.5t-69 171t-117 144.5t-173.5 99.5t-230 37.5 q-146 0 -272.5 -54t-216.5 -149t-141.5 -231t-51.5 -295t54.5 -295.5t149 -231.5t224.5 -148.5t277 -53.5q179 0 328.5 74.5t248.5 205.5l41 -63q-112 -137 -268.5 -212t-349.5 -75q-171 0 -317 58.5t-248.5 163t-160 253t-57.5 322.5zM592 297q0 -92 59 -145.5t156 -53.5 q124 0 195 83.5t71 199.5v149q-19 -8 -112 -24l-125 -23q-51 -9 -87 -19.5t-75.5 -31t-60.5 -54.5t-21 -81z" />
<glyph unicode="A" horiz-adv-x="1210" d="M33 0l524 1393h98l523 -1393h-80l-164 438h-660l-159 -438h-82zM301 512h604l-213 567q-59 157 -86 252q-11 -31 -27.5 -76.5t-36.5 -98.5t-28 -75z" />
<glyph unicode="B" horiz-adv-x="1343" d="M184 0v1393h475q147 0 236 -14.5t154 -61.5q65 -45 101 -115.5t36 -159.5q0 -126 -75.5 -208.5t-186.5 -104.5q145 -20 230 -115.5t85 -236.5q0 -216 -182 -314q-63 -33 -140 -48t-215 -15h-518zM264 76h455q125 0 192 14.5t121 48.5q121 75 121 240q0 204 -182 278 q-87 33 -252 33h-455v-614zM264 762h424q104 0 160 8t100 27q154 70 154 241q0 129 -88 205q-50 42 -122 58t-194 16h-434v-555z" />
<glyph unicode="C" horiz-adv-x="1300" d="M111 696q0 329 158.5 525t430.5 196q179 0 310.5 -86.5t201.5 -245.5l-63 -59q-60 153 -176 236.5t-273 83.5q-231 0 -369 -178t-138 -472q0 -293 139 -471t368 -178q159 0 278 86.5t179 243.5l64 -47q-69 -169 -202.5 -262t-318.5 -93q-273 0 -431 196t-158 525z" />
<glyph unicode="D" horiz-adv-x="1376" d="M184 0v1393h353q185 0 284 -17t189 -80q117 -81 185.5 -238t68.5 -358q0 -176 -52.5 -320t-148.5 -239q-41 -40 -86 -66.5t-87.5 -41.5t-108.5 -22.5t-121.5 -9t-155.5 -1.5h-320zM264 76h295q68 0 102 0.5t89 6t89.5 15.5t74.5 30t73 50q89 80 143 211.5t54 304.5 q0 160 -52 296.5t-149 221.5q-81 71 -175.5 88t-299.5 17h-244v-1241z" />
<glyph unicode="E" horiz-adv-x="1173" d="M184 0v1393h873v-76h-793v-559h719v-76h-719v-606h836v-76h-916z" />
<glyph unicode="F" horiz-adv-x="1058" d="M184 0v1393h830v-76h-750v-559h676v-76h-676v-682h-80z" />
<glyph unicode="G" horiz-adv-x="1351" d="M111 696q0 329 158.5 525t430.5 196q179 0 310.5 -86.5t201.5 -245.5l-63 -59q-60 153 -176 236.5t-273 83.5q-231 0 -369 -178t-138 -472q0 -292 141.5 -470.5t370.5 -178.5q120 0 218.5 48.5t160 146.5t61.5 229v139h-498v76h574v-686h-76v240h-2q-23 -51 -59 -95 t-89 -84t-131 -63t-170 -23q-180 0 -312.5 90t-201.5 252.5t-69 378.5z" />
<glyph unicode="H" horiz-adv-x="1376" d="M184 0v1393h80v-635h848v635h80v-1393h-80v682h-848v-682h-80z" />
<glyph unicode="I" horiz-adv-x="448" d="M184 0v1393h80v-1393h-80z" />
<glyph unicode="J" horiz-adv-x="1007" d="M37 336l78 33q3 -160 78.5 -244t246.5 -84q186 0 256 115q58 92 58 286v951h80v-951q0 -230 -74 -338q-91 -135 -326 -135q-84 0 -153 20t-124.5 62t-87 114.5t-32.5 170.5z" />
<glyph unicode="K" horiz-adv-x="1253" d="M184 0v1393h80v-824l821 824h109l-547 -547l594 -846h-102l-553 791l-322 -328v-463h-80z" />
<glyph unicode="L" horiz-adv-x="1054" d="M184 0v1393h80v-1317h774v-76h-854z" />
<glyph unicode="M" horiz-adv-x="1572" d="M184 0v1393h95l444 -1082q59 -143 78 -205h2q21 74 71 205l412 1082h103v-1393h-80v889q0 318 8 397h-2q-21 -83 -111 -321l-368 -965h-72l-387 940q-94 228 -119 324h-2q8 -84 8 -355v-909h-80z" />
<glyph unicode="N" horiz-adv-x="1400" d="M184 0v1393h78l764 -1088q24 -35 52 -77l44 -66l15 -25h2q-2 166 -2 266v990h80v-1393h-78l-762 1087l-113 170h-2q2 -104 2 -225v-1032h-80z" />
<glyph unicode="O" horiz-adv-x="1400" d="M111 696q0 329 158.5 525t430.5 196q273 0 431.5 -196t158.5 -525q0 -217 -70 -379.5t-204 -252t-316 -89.5q-273 0 -431 196t-158 525zM193 696q0 -293 139 -471t368 -178t369.5 178t140.5 471q0 294 -139 472t-371 178q-231 0 -369 -178t-138 -472z" />
<glyph unicode="P" horiz-adv-x="1232" d="M184 0v1393h478q194 0 290 -41q103 -44 162.5 -131.5t59.5 -206.5q0 -124 -58 -210t-162 -132q-100 -41 -290 -41h-400v-631h-80zM264 707h408q114 0 186 17t129 60q103 76 103 230q0 158 -136 243q-59 34 -126 47t-179 13h-385v-610z" />
<glyph unicode="Q" horiz-adv-x="1411" d="M111 696q0 329 158.5 525t430.5 196q273 0 431.5 -196t158.5 -525q0 -317 -145 -510l182 -170l-53 -53l-180 166q-154 -154 -394 -154q-273 0 -431 196t-158 525zM193 696q0 -293 139 -471t368 -178t369.5 178t140.5 471q0 294 -139 472t-371 178q-231 0 -369 -178 t-138 -472z" />
<glyph unicode="R" horiz-adv-x="1284" d="M184 0v1393h469q199 0 299 -41q103 -44 162.5 -131t59.5 -205q0 -187 -134 -287q-99 -76 -280 -86l463 -643h-105l-450 637h-404v-637h-80zM264 711h387q122 0 200.5 17t135.5 60q105 78 105 228q0 76 -34.5 137.5t-94.5 99.5q-58 37 -127 50.5t-185 13.5h-387v-606z" />
<glyph unicode="S" horiz-adv-x="1183" d="M70 274l67 54q58 -120 180 -200.5t289 -80.5q198 0 307 88t109 232q0 122 -83 194t-245 105l-194 41q-67 14 -117 30t-100.5 44t-82.5 64t-52.5 90.5t-20.5 123.5q0 162 125.5 260t331.5 98q155 0 268.5 -56.5t185.5 -143.5l-57 -64q-155 195 -397 195 q-164 0 -269.5 -75.5t-105.5 -205.5q0 -125 75.5 -189t239.5 -98l193 -41q91 -19 158.5 -47t120.5 -71t80.5 -105t27.5 -143q0 -180 -133 -289t-367 -109q-101 0 -190 26t-154 70t-112 94.5t-78 108.5z" />
<glyph unicode="T" horiz-adv-x="1103" d="M27 1317v76h1050v-76h-485v-1317h-82v1317h-483z" />
<glyph unicode="U" horiz-adv-x="1384" d="M172 571v822h80v-818q0 -131 9.5 -195.5t35.5 -117.5q49 -108 150 -163.5t245 -55.5q295 0 398 219q24 51 33.5 116t9.5 197v818h79v-822q0 -169 -18 -252q-37 -174 -168.5 -261t-333.5 -87t-333.5 87t-168.5 261q-18 80 -18 252z" />
<glyph unicode="V" horiz-adv-x="1144" d="M41 1393h86l362 -1041q53 -152 82 -260q30 101 86 258l375 1043h80l-500 -1393h-88z" />
<glyph unicode="W" horiz-adv-x="1806" d="M49 1393h90l273 -944q83 -284 90 -326h2q23 104 88 326l274 944h78l275 -944q65 -218 90 -328h2q13 60 90 328l268 944h80l-397 -1393h-82l-242 819q-95 321 -123 451h-2q-9 -41 -55.5 -209.5t-69.5 -245.5l-235 -815h-82z" />
<glyph unicode="X" horiz-adv-x="1169" d="M2 0l537 748l-455 645h100l408 -582l409 582h95l-457 -639l522 -754h-102l-473 690l-490 -690h-94z" />
<glyph unicode="Y" horiz-adv-x="1126" d="M16 1393h97l454 -711l449 711h90l-502 -795v-598h-80v598z" />
<glyph unicode="Z" horiz-adv-x="1140" d="M47 0v59l911 1258h-868v76h973v-60l-909 -1257h929v-76h-1036z" />
<glyph unicode="[" horiz-adv-x="565" d="M166 -324v1717h338v-70h-262v-1577h262v-70h-338z" />
<glyph unicode="\" horiz-adv-x="921" d="M51 1393h82l737 -1393h-84z" />
<glyph unicode="]" horiz-adv-x="565" d="M61 -254h263v1577h-263v70h338v-1717h-338v70z" />
<glyph unicode="^" horiz-adv-x="929" d="M88 657l346 736h94l330 -736h-86l-293 658l-301 -658h-90z" />
<glyph unicode="_" horiz-adv-x="1515" d="M219 -240h1077v-57h-1077v57z" />
<glyph unicode="`" horiz-adv-x="860" d="M240 1393h129l215 -279h-80z" />
<glyph unicode="a" horiz-adv-x="978" d="M94 270q0 115 74 183q76 71 248 98l266 45q35 6 46 17t11 40v33q0 127 -64.5 186.5t-203.5 59.5q-145 0 -211.5 -67.5t-66.5 -196.5l-68 37q-1 143 97 217.5t253 74.5q195 0 277 -100q57 -70 57 -197v-518q0 -71 19 -102t77 -31q36 0 66 10v-61q-32 -12 -86 -12 q-73 0 -109.5 34.5t-36.5 110.5q0 25 2 39h-2q-36 -84 -119 -139.5t-214 -55.5q-151 0 -231.5 83t-80.5 212zM174 270q0 -108 68.5 -168.5t183.5 -60.5q146 0 229.5 97.5t83.5 232.5v180q-18 -13 -135 -33l-147 -26q-52 -10 -83 -17t-74.5 -24t-67 -38.5t-41 -58 t-17.5 -84.5z" />
<glyph unicode="b" horiz-adv-x="1085" d="M156 0v1393h75v-621h2q34 96 121.5 161.5t214.5 65.5q197 0 305.5 -137.5t108.5 -378.5q0 -235 -112.5 -371.5t-301.5 -136.5q-247 0 -336 224h-2v-199h-75zM225 485q0 -211 90.5 -327.5t247.5 -116.5q160 0 249 117t89 329q0 214 -91.5 330.5t-250.5 116.5 q-155 0 -244.5 -117t-89.5 -332z" />
<glyph unicode="c" horiz-adv-x="985" d="M100 483q0 234 115.5 375t314.5 141q140 0 235.5 -63.5t143.5 -181.5l-59 -62q-38 116 -121 179t-199 63q-160 0 -254 -120.5t-94 -328.5q0 -205 95 -324.5t253 -119.5q107 0 187.5 55t124.5 158l57 -51q-120 -228 -369 -228q-199 0 -314.5 138.5t-115.5 369.5z" />
<glyph unicode="d" horiz-adv-x="1085" d="M102 492q0 235 112.5 371t301.5 136q247 0 336 -223h2v617h76v-1393h-76v203h-2q-34 -96 -121.5 -162t-214.5 -66q-196 0 -305 138t-109 379zM184 487q0 -214 91.5 -330t250.5 -116q155 0 244.5 116.5t89.5 331.5q0 212 -90.5 328.5t-247.5 116.5q-160 0 -249 -117.5 t-89 -329.5z" />
<glyph unicode="e" horiz-adv-x="1040" d="M100 483q0 232 117.5 374t312.5 142q191 0 301.5 -135.5t110.5 -353.5v-18h-760v-19q0 -188 94 -308t271 -120q61 0 112.5 15t86 36t65.5 54t48.5 59t35.5 61l53 -53q-22 -42 -53.5 -80.5t-80 -77t-118.5 -61.5t-151 -23q-203 0 -324 136t-121 372zM184 557h674 q-1 71 -23.5 137.5t-62.5 120.5t-103 86.5t-139 32.5q-146 0 -236.5 -99.5t-109.5 -277.5z" />
<glyph unicode="f" horiz-adv-x="638" d="M39 905v70h223v221q0 109 45 160q53 61 170 61q62 0 127 -18v-74q-73 25 -131 25q-70 0 -104 -37q-31 -34 -31 -111v-227h266v-70h-266v-905h-76v905h-223z" />
<glyph unicode="g" horiz-adv-x="1085" d="M102 492q0 235 112.5 371t301.5 136q247 0 336 -223h2v199h76v-920q0 -250 -97 -355.5t-317 -105.5q-106 0 -183.5 27t-121 75t-64.5 103.5t-24 122.5l74 35q13 -297 319 -297q86 0 148 21t98.5 55t57.5 90t27.5 113.5t6.5 138.5v125h-2q-34 -98 -119.5 -163t-216.5 -65 q-196 0 -305 138t-109 379zM184 487q0 -214 91.5 -330t250.5 -116q155 0 244.5 116.5t89.5 331.5q0 212 -90.5 328.5t-247.5 116.5q-160 0 -249 -117.5t-89 -329.5z" />
<glyph unicode="h" horiz-adv-x="1034" d="M156 0v1393h75v-600h2q32 84 116.5 145t213.5 61q196 0 275 -141q49 -88 49 -264v-594h-76v532q0 80 -4.5 134.5t-20.5 108.5t-44.5 85t-77.5 50.5t-119 19.5q-135 0 -223 -88q-91 -98 -91 -252v-590h-75z" />
<glyph unicode="i" horiz-adv-x="387" d="M156 0v975h75v-975h-75zM156 1178v215h75v-215h-75z" />
<glyph unicode="j" horiz-adv-x="387" d="M-119 -303q64 -39 142 -39q24 0 43 4t33 14t23.5 20.5t16 31t10 36.5t5 46.5t2 51.5t0.5 60v1053h75v-993q0 -171 -8 -232t-39 -102q-48 -62 -157 -62q-80 0 -146 29v82zM156 1178v215h75v-215h-75z" />
<glyph unicode="k" horiz-adv-x="970" d="M156 0v1393h75v-955l564 537h112l-387 -359l420 -616h-100l-377 563l-232 -215v-348h-75z" />
<glyph unicode="l" horiz-adv-x="415" d="M170 0v1393h76v-1393h-76z" />
<glyph unicode="m" horiz-adv-x="1562" d="M156 0v975h75v-180h2q28 83 106 143.5t196 60.5q225 0 268 -225q11 38 36 75.5t63.5 72t97 56t126.5 21.5q184 0 248 -147q41 -93 41 -277v-575h-76v532q0 57 -1.5 98t-7.5 85.5t-16 74.5t-27 58.5t-41.5 45t-59.5 26.5t-80 10q-130 0 -205 -94.5t-78 -233.5v-27v-575 h-75v532q0 81 -4 134.5t-17.5 108t-38 85.5t-68.5 50.5t-106 19.5q-132 0 -207.5 -98t-75.5 -242v-590h-75z" />
<glyph unicode="n" horiz-adv-x="1034" d="M156 0v975h75v-182h2q30 83 114.5 144.5t215.5 61.5q196 0 275 -141q49 -88 49 -264v-594h-76v532q0 80 -4.5 134.5t-20.5 108.5t-44.5 85t-77.5 50.5t-119 19.5q-135 0 -223 -88q-91 -98 -91 -252v-590h-75z" />
<glyph unicode="o" horiz-adv-x="1062" d="M100 483q0 234 115 375t315 141q201 0 317 -141t116 -375q0 -230 -117.5 -369t-315.5 -139q-197 0 -313.5 139t-116.5 369zM182 485q0 -205 95 -324.5t253 -119.5q159 0 255 120t96 324q0 210 -94.5 329.5t-256.5 119.5q-160 0 -254 -120.5t-94 -328.5z" />
<glyph unicode="p" horiz-adv-x="1085" d="M156 -389v1364h75v-203h2q34 96 121.5 161.5t214.5 65.5q197 0 305.5 -137.5t108.5 -378.5q0 -235 -112.5 -371.5t-301.5 -136.5q-247 0 -336 224h-2v-588h-75zM225 485q0 -211 90.5 -327.5t247.5 -116.5q160 0 249 117t89 329q0 214 -91.5 330.5t-250.5 116.5 q-155 0 -244.5 -117t-89.5 -332z" />
<glyph unicode="q" horiz-adv-x="1085" d="M102 492q0 235 112.5 371t301.5 136q247 0 336 -223h2v199h76v-1364h-76v592h-2q-34 -96 -121.5 -162t-214.5 -66q-196 0 -305 138t-109 379zM184 487q0 -214 91.5 -330t250.5 -116q155 0 244.5 116.5t89.5 331.5q0 212 -90.5 328.5t-247.5 116.5q-160 0 -249 -117.5 t-89 -329.5z" />
<glyph unicode="r" horiz-adv-x="634" d="M156 0v975h75v-201q23 88 102 156.5t179 68.5q53 0 80 -10v-69q-36 8 -74 8q-88 0 -155 -52.5t-99.5 -129.5t-32.5 -162v-584h-75z" />
<glyph unicode="s" horiz-adv-x="907" d="M76 154l53 57q129 -168 344 -168q136 1 206.5 58.5t70.5 152.5q-1 47 -17.5 81t-50.5 56.5t-70.5 35.5t-93.5 26l-141 34q-131 31 -198.5 87.5t-67.5 166.5q0 120 94.5 188t240.5 70q210 0 332 -147l-47 -59q-51 67 -128 104t-165 37q-109 -2 -178.5 -50.5t-69.5 -135.5 q0 -84 52 -125.5t170 -69.5l116 -29q72 -17 120.5 -35.5t92.5 -48t66 -74.5t22 -106q0 -132 -100.5 -208.5t-263.5 -76.5q-130 0 -232.5 53t-156.5 126z" />
<glyph unicode="t" horiz-adv-x="604" d="M27 905v70h196v375l76 16v-391h242v-70h-242v-704q0 -76 16 -109q22 -43 93 -43q41 0 84 15t71 36v-73q-31 -20 -78.5 -33.5t-91.5 -13.5q-97 0 -137 59q-33 47 -33 160v706h-196z" />
<glyph unicode="u" horiz-adv-x="1024" d="M147 381v594h76v-533q0 -82 4 -134.5t19 -107.5t42.5 -85.5t76 -50t118.5 -19.5q131 0 219 88q91 98 91 252v590h75v-975h-75v176h-2q-38 -85 -117.5 -143t-208.5 -58q-189 0 -268 142q-50 90 -50 264z" />
<glyph unicode="v" horiz-adv-x="880" d="M49 975h84l242 -666q38 -102 63 -198h2q17 65 70 200l254 664h80l-379 -975h-62z" />
<glyph unicode="w" horiz-adv-x="1353" d="M51 975h84l203 -621q43 -124 72 -233h2q50 203 57 229l178 625h70l180 -619q25 -80 61 -221h3q27 108 67 230l195 610h77l-317 -975h-57l-195 653q-30 95 -51 191h-2q-19 -93 -49 -193l-187 -651h-69z" />
<glyph unicode="x" horiz-adv-x="878" d="M35 0l358 504l-330 471h95l284 -414l285 414h90l-336 -469l363 -506h-96l-312 446l-311 -446h-90z" />
<glyph unicode="y" horiz-adv-x="880" d="M49 975h86l248 -694l55 -162h2q18 57 62 168l262 688h82l-432 -1108q-53 -136 -82 -184q-31 -50 -71 -73.5t-105 -23.5q-51 0 -95 19v78q42 -25 99 -25q49 0 78 23q33 26 71 122l86 220z" />
<glyph unicode="z" horiz-adv-x="825" d="M66 0v57l569 848h-551v70h641l2 -57l-573 -848h614v-70h-702z" />
<glyph unicode="{" horiz-adv-x="575" d="M72 512v63q34 11 58 25.5t40 36.5t25 43.5t13.5 59t5.5 69t1 86.5v129q0 47 0.5 75.5t3 66t8 59.5t14.5 49.5t22.5 43t33 32t45 24.5t59.5 13.5t76 5.5h39v-62q-76 0 -119.5 -10.5t-68.5 -42.5t-32 -76.5t-7 -126.5v-127q0 -87 -2.5 -137.5t-10 -100t-23 -77t-41 -50.5 t-65.5 -38v-2q40 -15 65.5 -38t41 -51t23 -77.5t10 -100t2.5 -137.5v-145q0 -82 7 -126.5t32 -76.5t68.5 -42.5t119.5 -10.5v-62h-39q-42 0 -76 5.5t-59.5 13.5t-45 24.5t-33 32t-22.5 43t-14.5 49.5t-8 59.5t-3 66t-0.5 75.5v148q0 55 -1 86.5t-5.5 69t-13.5 58.5t-25 43 t-40 36.5t-58 25.5z" />
<glyph unicode="|" horiz-adv-x="407" d="M166 -324v1717h76v-1717h-76z" />
<glyph unicode="}" horiz-adv-x="575" d="M59 -262q61 0 100.5 7.5t65.5 23.5t39 48t18 72t5 105v145q0 87 2 137.5t9.5 100.5t23 77.5t41 50.5t65.5 38v2q-40 15 -65.5 38t-41 50.5t-23 77t-9.5 100t-2 137.5v127q0 65 -5 105t-18 72t-39 48t-65.5 23.5t-100.5 7.5v62h39q42 0 76 -5.5t59.5 -13.5t45 -24.5 t33 -32t22.5 -43t14.5 -49.5t8 -59.5t3 -66t0.5 -75.5v-129q0 -55 1 -87t5.5 -69t14 -58.5t25.5 -43.5t40 -36.5t58 -25.5v-63q-34 -11 -58 -25.5t-40 -36.5t-25.5 -43.5t-14 -58t-5.5 -68.5t-1 -87v-148q0 -47 -0.5 -75.5t-3 -66t-8 -59.5t-14.5 -49.5t-22.5 -43t-33 -32 t-45 -24.5t-59.5 -13.5t-76 -5.5h-39v62z" />
<glyph unicode="~" horiz-adv-x="1163" d="M109 569q36 56 100.5 104t144.5 48q51 0 105 -17.5t143 -60.5q96 -46 131.5 -59t71.5 -13q107 0 199 113l51 -57q-107 -127 -252 -127q-39 0 -84.5 12.5t-77.5 26.5t-88 41q-44 22 -65.5 31.5t-62.5 21.5t-75 12q-52 0 -94 -29.5t-96 -97.5z" />
<glyph unicode="&#xa1;" horiz-adv-x="391" d="M143 741v234h105v-234h-105zM156 285l12 329h55l13 -329v-703h-80v703z" />
<glyph unicode="&#xa2;" horiz-adv-x="995" d="M104 483q0 220 102 358.5t283 155.5v191h76v-191q121 -6 211.5 -69t138.5 -172l-61 -64q-37 108 -111.5 170.5t-177.5 69.5v-891q97 7 170 65t111 156l61 -59q-50 -102 -138 -161t-204 -65v-208h-76v208q-178 17 -281.5 153t-103.5 353zM186 485q0 -190 82 -307.5 t221 -134.5v887q-141 -17 -222 -135t-81 -310z" />
<glyph unicode="&#xa3;" horiz-adv-x="1124" d="M86 0v57q91 10 141.5 46t74.5 115.5t24 221.5q0 81 -11 228h-229v69h225q-8 152 -8 236q0 446 369 446q171 0 263 -87t103 -228l-69 -27q-7 119 -80.5 197t-218.5 78q-73 0 -126.5 -21.5t-85 -56t-50 -87.5t-25 -105t-6.5 -119q0 -48 2 -104.5t4 -88.5l2 -33h332v-69 h-326q0 -14 4 -97.5t4 -130.5q0 -139 -28.5 -234t-106.5 -136l2 -4q113 4 269 4h473v-70h-922z" />
<glyph unicode="&#xa4;" horiz-adv-x="1107" d="M117 225l135 135q-86 115 -86 246t86 250l-135 133l55 53l133 -133q118 86 250 86q130 0 246 -86l133 133l57 -55l-131 -131q86 -123 86 -250q0 -133 -84 -250l129 -129l-57 -55l-129 129q-120 -84 -250 -84q-128 0 -248 86l-133 -133zM238 606q0 -135 91 -228t226 -93 q137 0 228 92.5t91 228.5q0 137 -90.5 230.5t-228.5 93.5q-135 0 -226 -93.5t-91 -230.5z" />
<glyph unicode="&#xa5;" horiz-adv-x="1220" d="M66 1393h94l456 -711l451 711h88l-465 -725h385v-72h-426v-207h426v-72h-426v-317h-76v317h-428v72h428v207h-428v72h387z" />
<glyph unicode="&#xa6;" horiz-adv-x="411" d="M168 -324v662h76v-662h-76zM168 731v662h76v-662h-76z" />
<glyph unicode="&#xa7;" horiz-adv-x="989" d="M104 20l54 62q55 -91 141.5 -143t198.5 -52q135 0 206.5 58.5t71.5 150.5q0 37 -16.5 69.5t-39 54.5t-61 44t-67.5 34.5t-74 29.5l-119 45q-48 18 -76 29.5t-66.5 31t-60.5 39.5t-44 47.5t-31.5 63t-9.5 78.5q0 102 64.5 168t158.5 92q-38 20 -61 36.5t-50.5 44.5t-41 68 t-13.5 92q0 121 94.5 187.5t239.5 66.5q215 0 336 -149l-54 -64q-43 64 -116 106t-170 42q-110 0 -180 -48t-70 -133q0 -84 52 -131.5t167 -87.5l141 -49q60 -21 105.5 -44.5t87.5 -56.5t64 -79t22 -102q0 -112 -59 -177.5t-156 -103.5q184 -76 184 -236 q0 -133 -97.5 -208.5t-260.5 -75.5q-139 0 -242 56.5t-152 143.5zM190 670q0 -40 12.5 -72t31 -54t56.5 -43.5t70 -35.5t91 -37l139 -53q98 25 158.5 84.5t60.5 146.5q0 48 -18 85t-56 65.5t-82 49t-110 42.5l-125 43q-100 -22 -164 -79t-64 -142z" />
<glyph unicode="&#xa8;" horiz-adv-x="962" d="M250 1157v186h84v-186h-84zM627 1157v186h84v-186h-84z" />
<glyph unicode="&#xa9;" horiz-adv-x="1617" d="M109 717q0 194 92 354.5t253 253t355 92.5t355 -92.5t253 -253t92 -354.5q0 -145 -54 -274.5t-147 -222.5t-223 -147.5t-276 -54.5t-276 54.5t-223 147.5t-147 222.5t-54 274.5zM184 717q0 -174 81 -319t224.5 -229.5t319.5 -84.5t319.5 84.5t224.5 229.5t81 319 t-81 319.5t-224.5 230.5t-319.5 85t-319.5 -85t-224.5 -230.5t-81 -319.5zM438 715q0 200 101 320t270 120q112 0 190 -51.5t119 -145.5l-59 -43q-65 175 -250 175q-135 0 -215 -99t-80 -274q0 -174 81 -271.5t214 -97.5q180 0 250 152l59 -41q-92 -176 -309 -176 q-168 0 -269.5 118.5t-101.5 313.5z" />
<glyph unicode="&#xaa;" horiz-adv-x="755" d="M106 956q0 78 48.5 120.5t150.5 60.5l170 28q33 7 33 31v23q0 75 -39.5 111t-122.5 36q-170 0 -170 -172l-51 35q-1 90 62 139t159 49q120 0 178 -63q39 -45 39 -129v-322q0 -40 11 -58t44 -18q22 0 46 9v-52q-23 -10 -60 -10q-96 0 -96 100q-56 -106 -203 -106 q-94 0 -146.5 53t-52.5 135zM168 958q0 -64 41 -100.5t108 -36.5q89 0 140 57.5t51 135.5v110q-37 -10 -78 -18l-92 -16q-37 -6 -62 -13.5t-52.5 -21.5t-41.5 -38.5t-14 -58.5z" />
<glyph unicode="&#xab;" horiz-adv-x="776" d="M104 549v72l277 325v-112l-215 -246l215 -250v-115zM377 549v72l276 325v-112l-215 -246l215 -250v-115z" />
<glyph unicode="&#xac;" horiz-adv-x="1081" d="M117 860v70h811v-477h-76v407h-735z" />
<glyph unicode="&#xad;" horiz-adv-x="833" d="M133 510v74h567v-74h-567z" />
<glyph unicode="&#xae;" horiz-adv-x="1617" d="M109 717q0 194 92 354.5t253 253t355 92.5t355 -92.5t253 -253t92 -354.5q0 -145 -54 -274.5t-147 -222.5t-223 -147.5t-276 -54.5t-276 54.5t-223 147.5t-147 222.5t-54 274.5zM184 717q0 -174 81 -319t224.5 -229.5t319.5 -84.5t319.5 84.5t224.5 229.5t81 319 t-81 319.5t-224.5 230.5t-319.5 85t-319.5 -85t-224.5 -230.5t-81 -319.5zM516 303v836h338q131 0 199 -41q100 -63 100 -187q0 -112 -73 -167t-191 -62l272 -379h-84l-272 379h-221v-379h-68zM584 743h243q105 0 162 23q96 49 96 141q0 99 -96 148q-55 22 -162 22h-243 v-334z" />
<glyph unicode="&#xaf;" horiz-adv-x="921" d="M176 1167v66h555v-66h-555z" />
<glyph unicode="&#xb0;" horiz-adv-x="757" d="M94 1133q0 118 83 201t202 83t202 -83t83 -201q0 -119 -83.5 -203t-201.5 -84t-201.5 84t-83.5 203zM162 1133q0 -91 63 -154.5t154 -63.5q89 0 153 63.5t64 154.5q0 89 -64 153t-153 64q-90 0 -153.5 -63.5t-63.5 -153.5z" />
<glyph unicode="&#xb1;" horiz-adv-x="1466" d="M133 0v68h1200v-68h-1200zM133 684v68h567v462h70v-462h563v-68h-563v-465h-70v465h-567z" />
<glyph unicode="&#xb2;" horiz-adv-x="823" d="M125 1174q0 109 76 184.5t207 75.5q134 0 209 -76.5t75 -200.5q0 -48 -12 -93t-29 -81t-49 -75t-57.5 -65t-70.5 -61.5t-72.5 -55.5t-77.5 -54l-80 -54h448v-65h-565v61q7 5 63.5 43.5t87.5 60t80 58.5t84 68q81 74 125.5 144.5t44.5 162.5q0 100 -59 157.5t-150 57.5 q-98 0 -148 -54t-50 -136q0 -75 43 -156l-90 14q-33 65 -33 140z" />
<glyph unicode="&#xb3;" horiz-adv-x="792" d="M96 768l76 39q-1 -110 61 -159.5t158 -49.5q97 0 158 51t61 142q0 100 -69.5 142t-200.5 42h-72v63h31q44 0 80 3t77 14t68 29.5t45.5 51.5t18.5 78q0 67 -50.5 109.5t-146.5 42.5q-94 0 -147.5 -52.5t-61.5 -129.5l-63 43q1 29 18 63t49 67t86 55t119 22 q134 0 204.5 -63t70.5 -152q0 -76 -45.5 -130.5t-124.5 -76.5q84 -16 137 -73t53 -148q0 -116 -79 -188.5t-218 -72.5q-130 0 -207.5 63.5t-85.5 174.5z" />
<glyph unicode="&#xb4;" horiz-adv-x="860" d="M207 1114l215 279h129l-264 -279h-80z" />
<glyph unicode="&#xb5;" horiz-adv-x="1007" d="M162 -389v1364h76v-545q0 -80 5 -133.5t20.5 -105t43.5 -81t75.5 -47.5t115.5 -18q131 0 219 88q90 97 90 252v590h76v-975h-76v176h-2q-38 -85 -117.5 -143t-208.5 -58q-85 0 -149 32.5t-92 90.5v-487h-76z" />
<glyph unicode="&#xb6;" horiz-adv-x="1179" d="M61 1030q0 183 121 281q53 41 124.5 61.5t197.5 20.5h614v-68h-174v-1587h-74v1587h-252v-1587h-71v930h-43q-126 0 -197.5 20.5t-124.5 61.5q-121 98 -121 280z" />
<glyph unicode="&#xb7;" horiz-adv-x="382" d="M143 539v233h99v-233h-99z" />
<glyph unicode="&#xb8;" horiz-adv-x="921" d="M315 -131l107 133h59l-80 -102q16 4 52 4q70 0 115.5 -37t45.5 -107q0 -82 -53 -120.5t-133 -38.5q-51 0 -104 16l16 53q47 -14 88 -14q55 0 89 24.5t34 77.5q0 51 -36 73t-89 22q-47 0 -86 -17z" />
<glyph unicode="&#xb9;" horiz-adv-x="509" d="M66 1147v65h32q94 0 138 33q56 41 59 148h67v-854h-75v655q-55 -49 -176 -49q-31 0 -45 2z" />
<glyph unicode="&#xba;" horiz-adv-x="749" d="M100 1090q0 149 74 237t203 88q127 0 199.5 -88t72.5 -237q0 -146 -72 -233t-200 -87q-129 0 -203 87t-74 233zM168 1090q0 -124 57 -193.5t152 -69.5q92 0 148.5 70t56.5 193q0 128 -54.5 199t-150.5 71t-152.5 -72.5t-56.5 -197.5z" />
<glyph unicode="&#xbb;" horiz-adv-x="776" d="M123 223v115l215 250l-215 246v112l276 -325v-72zM395 223v115l215 250l-215 246v112l277 -325v-72z" />
<glyph unicode="&#xbc;" horiz-adv-x="1456" d="M70 1147v65h32q94 0 138 33q56 41 59 148h68v-854h-76v655q-55 -49 -176 -49q-31 0 -45 2zM293 0l723 1393h82l-725 -1393h-80zM756 225v54l411 575h72v-563h154v-66h-154v-225h-76v225h-407zM840 291h323v231l6 228h-4q-77 -125 -108 -164l-82 -117q-20 -29 -54 -73.5 t-57 -74.5z" />
<glyph unicode="&#xbd;" horiz-adv-x="1609" d="M66 1147v65h32q94 0 138 33q56 41 59 148h67v-854h-75v655q-55 -49 -176 -49q-31 0 -45 2zM289 0l723 1393h82l-725 -1393h-80zM950 621q0 109 76 184.5t207 75.5q134 0 209.5 -76.5t75.5 -200.5q0 -48 -12 -93t-29 -81t-49.5 -75t-58 -65t-70.5 -61.5t-72.5 -55 t-77.5 -54.5l-80 -53h449v-66h-566v61q10 7 64 43.5t86.5 59.5t81.5 59.5t84 67.5q81 74 125.5 144.5t44.5 162.5q0 100 -59 157.5t-150 57.5q-98 0 -148.5 -54t-50.5 -136q0 -75 43 -156l-90 14q-33 65 -33 140z" />
<glyph unicode="&#xbe;" horiz-adv-x="1654" d="M82 768l76 39q-1 -110 61 -159.5t158 -49.5q97 0 158 51t61 142q0 100 -69.5 142t-200.5 42h-72v63h31q44 0 80 3t76.5 14t68 29.5t45.5 51.5t18 78q0 67 -50.5 109.5t-145.5 42.5q-94 0 -147.5 -52.5t-61.5 -129.5l-64 43q1 29 18.5 63t49 67t86 55t119.5 22 q134 0 204 -63t70 -152q0 -76 -45.5 -130.5t-124.5 -76.5q84 -16 137.5 -73t53.5 -148q0 -116 -79 -188.5t-218 -72.5q-130 0 -207.5 63.5t-85.5 174.5zM492 0l722 1393h82l-725 -1393h-79zM954 225v54l412 575h72v-563h153v-66h-153v-225h-76v225h-408zM1038 291h324v231 l6 228h-4q-80 -123 -109 -164l-81 -117q-20 -29 -54 -73.5t-58 -74.5z" />
<glyph unicode="&#xbf;" horiz-adv-x="901" d="M61 -78q0 63 13 116t40 97.5t58 80t78 77.5l49 43q99 89 122.5 134t24.5 153v34h82v-59q0 -87 -25.5 -143.5t-115.5 -137.5l-78 -69q-83 -73 -124.5 -148.5t-41.5 -169.5q0 -133 83.5 -219t228.5 -86t225 89t80 220q0 92 -35 166l88 -18q27 -80 27 -154 q0 -162 -105.5 -266t-281.5 -104q-183 0 -287.5 103.5t-104.5 260.5zM434 776v199h105v-199h-105z" />
<glyph unicode="&#xc0;" horiz-adv-x="1210" d="M33 0l524 1393h98l523 -1393h-80l-164 438h-660l-159 -438h-82zM301 512h604l-213 567q-59 157 -86 252q-11 -31 -27.5 -76.5t-36.5 -98.5t-28 -75zM352 1821h129l215 -279h-80z" />
<glyph unicode="&#xc1;" horiz-adv-x="1210" d="M33 0l524 1393h98l523 -1393h-80l-164 438h-660l-159 -438h-82zM301 512h604l-213 567q-59 157 -86 252q-11 -31 -27.5 -76.5t-36.5 -98.5t-28 -75zM551 1542l215 279h129l-264 -279h-80z" />
<glyph unicode="&#xc2;" horiz-adv-x="1210" d="M33 0l524 1393h98l523 -1393h-80l-164 438h-660l-159 -438h-82zM301 512h604l-213 567q-59 157 -86 252q-11 -31 -27.5 -76.5t-36.5 -98.5t-28 -75zM330 1542l233 279h107l233 -279h-82l-205 215l-204 -215h-82z" />
<glyph unicode="&#xc3;" horiz-adv-x="1210" d="M33 0l524 1393h98l523 -1393h-80l-164 438h-660l-159 -438h-82zM301 512h604l-213 567q-59 157 -86 252q-11 -31 -27.5 -76.5t-36.5 -98.5t-28 -75zM303 1606q8 35 26.5 67.5t58 59t91.5 26.5t156 -53q88 -45 133 -45q24 0 42 7.5t30.5 24.5t18.5 29t15 35l58 -22 q-44 -138 -166 -138q-60 0 -158 50q-56 28 -83.5 38.5t-51.5 10.5q-41 0 -68 -33.5t-40 -79.5z" />
<glyph unicode="&#xc4;" horiz-adv-x="1210" d="M33 0l524 1393h98l523 -1393h-80l-164 438h-660l-159 -438h-82zM301 512h604l-213 567q-59 157 -86 252q-11 -31 -27.5 -76.5t-36.5 -98.5t-28 -75zM381 1597v187h84v-187h-84zM758 1597v187h84v-187h-84z" />
<glyph unicode="&#xc5;" horiz-adv-x="1210" d="M33 0l524 1393h98l523 -1393h-80l-164 438h-660l-159 -438h-82zM301 512h604l-213 567q-59 157 -86 252q-11 -31 -27.5 -76.5t-36.5 -98.5t-28 -75zM440 1692q0 71 49 118.5t119 47.5t119 -47.5t49 -118.5t-49 -118.5t-119 -47.5t-119 47.5t-49 118.5zM496 1692 q0 -46 32 -78.5t78 -32.5t78.5 32.5t32.5 78.5t-32.5 78t-78.5 32t-78 -32t-32 -78z" />
<glyph unicode="&#xc6;" horiz-adv-x="1857" d="M-25 0l875 1393h891v-76h-772v-557h696v-76h-696v-608h815v-76h-895v432h-547l-274 -432h-93zM387 508h502v479q0 92 1.5 177.5t3.5 125.5l1 39h-2q-123 -211 -176 -295z" />
<glyph unicode="&#xc7;" horiz-adv-x="1300" d="M111 696q0 329 158.5 525t430.5 196q179 0 310.5 -86.5t201.5 -245.5l-63 -59q-60 153 -176 236.5t-273 83.5q-231 0 -369 -178t-138 -472q0 -293 139 -471t368 -178q159 0 278 86.5t179 243.5l64 -47q-67 -164 -194.5 -256.5t-303.5 -98.5l-57 -71q16 4 51 4 q70 0 116 -37t46 -107q0 -82 -53.5 -120.5t-133.5 -38.5q-51 0 -104 16l16 53q47 -14 88 -14q55 0 89 24.5t34 77.5q0 51 -36 73t-89 22q-47 0 -86 -17l-29 37l78 100q-252 17 -397 210.5t-145 508.5z" />
<glyph unicode="&#xc8;" horiz-adv-x="1173" d="M184 0v1393h873v-76h-793v-559h719v-76h-719v-606h836v-76h-916zM393 1821h129l215 -279h-80z" />
<glyph unicode="&#xc9;" horiz-adv-x="1173" d="M184 0v1393h873v-76h-793v-559h719v-76h-719v-606h836v-76h-916zM535 1542l215 279h129l-265 -279h-79z" />
<glyph unicode="&#xca;" horiz-adv-x="1173" d="M184 0v1393h873v-76h-793v-559h719v-76h-719v-606h836v-76h-916zM350 1542l234 279h106l234 -279h-82l-205 215l-205 -215h-82z" />
<glyph unicode="&#xcb;" horiz-adv-x="1173" d="M184 0v1393h873v-76h-793v-559h719v-76h-719v-606h836v-76h-916zM389 1597v187h84v-187h-84zM766 1597v187h84v-187h-84z" />
<glyph unicode="&#xcc;" horiz-adv-x="448" d="M-6 1821h129l215 -279h-80zM184 0v1393h80v-1393h-80z" />
<glyph unicode="&#xcd;" horiz-adv-x="448" d="M152 1542l215 279h129l-265 -279h-79zM184 0v1393h80v-1393h-80z" />
<glyph unicode="&#xce;" horiz-adv-x="448" d="M-51 1542l233 279h107l233 -279h-82l-204 215l-205 -215h-82zM184 0v1393h80v-1393h-80z" />
<glyph unicode="&#xcf;" horiz-adv-x="448" d="M0 1597v187h84v-187h-84zM184 0v1393h80v-1393h-80zM377 1597v187h84v-187h-84z" />
<glyph unicode="&#xd0;" horiz-adv-x="1380" d="M20 719v76h168v598h353q185 0 284 -17t189 -80q117 -81 185.5 -238t68.5 -358q0 -176 -52.5 -320t-148.5 -239q-41 -40 -86 -66.5t-87.5 -41.5t-108.5 -22.5t-121.5 -9t-155.5 -1.5h-320v719h-168zM268 76h295q68 0 102 0.5t89 6t89.5 15.5t74.5 30t73 50 q89 80 143 211.5t54 304.5q0 160 -52 296.5t-149 221.5q-81 71 -175.5 88t-299.5 17h-244v-522h529v-76h-529v-643z" />
<glyph unicode="&#xd1;" horiz-adv-x="1400" d="M184 0v1393h78l764 -1088q24 -35 52 -77l44 -66l15 -25h2q-2 166 -2 266v990h80v-1393h-78l-762 1087l-113 170h-2q2 -104 2 -225v-1032h-80zM381 1606q8 35 26.5 67.5t58 59t91.5 26.5t156 -53q88 -45 133 -45q24 0 42 7.5t30.5 24.5t18.5 29t15 35l58 -22 q-44 -138 -166 -138q-60 0 -158 50q-56 28 -83.5 38.5t-51.5 10.5q-41 0 -68.5 -34t-40.5 -79z" />
<glyph unicode="&#xd2;" horiz-adv-x="1400" d="M111 696q0 329 158.5 525t430.5 196q273 0 431.5 -196t158.5 -525q0 -217 -70 -379.5t-204 -252t-316 -89.5q-273 0 -431 196t-158 525zM193 696q0 -293 139 -471t368 -178t369.5 178t140.5 471q0 294 -139 472t-371 178q-231 0 -369 -178t-138 -472zM471 1821h129 l215 -279h-80z" />
<glyph unicode="&#xd3;" horiz-adv-x="1400" d="M111 696q0 329 158.5 525t430.5 196q273 0 431.5 -196t158.5 -525q0 -217 -70 -379.5t-204 -252t-316 -89.5q-273 0 -431 196t-158 525zM193 696q0 -293 139 -471t368 -178t369.5 178t140.5 471q0 294 -139 472t-371 178q-231 0 -369 -178t-138 -472zM604 1542l215 279 h129l-264 -279h-80z" />
<glyph unicode="&#xd4;" horiz-adv-x="1400" d="M111 696q0 329 158.5 525t430.5 196q273 0 431.5 -196t158.5 -525q0 -217 -70 -379.5t-204 -252t-316 -89.5q-273 0 -431 196t-158 525zM193 696q0 -293 139 -471t368 -178t369.5 178t140.5 471q0 294 -139 472t-371 178q-231 0 -369 -178t-138 -472zM412 1542l233 279 h107l233 -279h-82l-205 215l-204 -215h-82z" />
<glyph unicode="&#xd5;" horiz-adv-x="1400" d="M111 696q0 329 158.5 525t430.5 196q273 0 431.5 -196t158.5 -525q0 -217 -70 -379.5t-204 -252t-316 -89.5q-273 0 -431 196t-158 525zM193 696q0 -293 139 -471t368 -178t369.5 178t140.5 471q0 294 -139 472t-371 178q-231 0 -369 -178t-138 -472zM403 1606 q8 35 27 67.5t58.5 59t91.5 26.5q33 0 66.5 -12.5t88.5 -40.5q88 -45 133 -45q24 0 42 7.5t30.5 24.5t19 29t15.5 35l57 -22q-44 -138 -166 -138q-59 0 -157 50q-100 49 -136 49q-41 0 -68 -33.5t-40 -79.5z" />
<glyph unicode="&#xd6;" horiz-adv-x="1400" d="M111 696q0 329 158.5 525t430.5 196q273 0 431.5 -196t158.5 -525q0 -217 -70 -379.5t-204 -252t-316 -89.5q-273 0 -431 196t-158 525zM193 696q0 -293 139 -471t368 -178t369.5 178t140.5 471q0 294 -139 472t-371 178q-231 0 -369 -178t-138 -472zM477 1597v187h84 v-187h-84zM854 1597v187h84v-187h-84z" />
<glyph unicode="&#xd7;" horiz-adv-x="1280" d="M111 129l477 475l-477 477l53 54l477 -478l477 480l53 -52l-477 -477l477 -481l-53 -53l-477 479l-477 -477z" />
<glyph unicode="&#xd8;" horiz-adv-x="1417" d="M43 -2l197 219q-123 189 -123 479q0 329 159 525t431 196q276 0 432 -198l182 202l57 -51l-194 -217q112 -180 112 -457q0 -330 -157.5 -525.5t-431.5 -195.5q-262 0 -418 179l-187 -207zM199 696q0 -248 100 -413l786 874q-143 189 -378 189q-231 0 -369.5 -178 t-138.5 -472zM344 217q137 -170 363 -170q229 0 369.5 178t140.5 471q0 232 -89 394z" />
<glyph unicode="&#xd9;" horiz-adv-x="1384" d="M172 571v822h80v-818q0 -131 9.5 -195.5t35.5 -117.5q49 -108 150 -163.5t245 -55.5q295 0 398 219q24 51 33.5 116t9.5 197v818h79v-822q0 -169 -18 -252q-37 -174 -168.5 -261t-333.5 -87t-333.5 87t-168.5 261q-18 80 -18 252zM467 1821h129l215 -279h-80z" />
<glyph unicode="&#xda;" horiz-adv-x="1384" d="M172 571v822h80v-818q0 -131 9.5 -195.5t35.5 -117.5q49 -108 150 -163.5t245 -55.5q295 0 398 219q24 51 33.5 116t9.5 197v818h79v-822q0 -169 -18 -252q-37 -174 -168.5 -261t-333.5 -87t-333.5 87t-168.5 261q-18 80 -18 252zM569 1542l215 279h129l-264 -279h-80z " />
<glyph unicode="&#xdb;" horiz-adv-x="1384" d="M172 571v822h80v-818q0 -131 9.5 -195.5t35.5 -117.5q49 -108 150 -163.5t245 -55.5q295 0 398 219q24 51 33.5 116t9.5 197v818h79v-822q0 -169 -18 -252q-37 -174 -168.5 -261t-333.5 -87t-333.5 87t-168.5 261q-18 80 -18 252zM399 1542l234 279h106l234 -279h-82 l-205 215l-205 -215h-82z" />
<glyph unicode="&#xdc;" horiz-adv-x="1384" d="M172 571v822h80v-818q0 -131 9.5 -195.5t35.5 -117.5q49 -108 150 -163.5t245 -55.5q295 0 398 219q24 51 33.5 116t9.5 197v818h79v-822q0 -169 -18 -252q-37 -174 -168.5 -261t-333.5 -87t-333.5 87t-168.5 261q-18 80 -18 252zM459 1597v187h84v-187h-84zM836 1597 v187h84v-187h-84z" />
<glyph unicode="&#xdd;" horiz-adv-x="1126" d="M16 1393h97l454 -711l449 711h90l-502 -795v-598h-80v598zM475 1542l215 279h129l-264 -279h-80z" />
<glyph unicode="&#xde;" horiz-adv-x="1277" d="M184 0v1393h80v-176h408q201 0 299 -43q106 -45 166.5 -135.5t60.5 -213.5q0 -127 -59 -215t-166 -135q-101 -43 -299 -43h-410v-432h-80zM264 508h420q117 0 191 17.5t133 62.5q106 80 106 237q0 166 -139 254q-60 36 -128.5 49t-184.5 13h-398v-633z" />
<glyph unicode="&#xdf;" horiz-adv-x="993" d="M156 0v938q0 136 10.5 204t36.5 120q81 155 297 155q164 0 244.5 -84.5t80.5 -218.5q0 -122 -54 -194.5t-140 -94.5l-2 -2q31 -7 50.5 -13t49.5 -20.5t50 -32t42.5 -48t36 -69t22.5 -95t9 -125.5q0 -434 -299 -434q-145 0 -203 88q-26 43 -35.5 96t-9.5 160v30h68 q0 -45 0.5 -68t3.5 -62t9.5 -59.5t19 -47.5t31 -40.5t46.5 -23.5t64 -10q127 0 177 88.5t50 284.5q0 120 -23 187.5t-86 117.5q-75 57 -274 57h-86v66h74q147 0 202 24q134 63 134 230q0 110 -63 179t-191 69q-95 0 -152 -37.5t-86 -112.5q-17 -45 -23 -98t-6 -182v-922h-75 z" />
<glyph unicode="&#xe0;" horiz-adv-x="978" d="M94 270q0 115 74 183q76 71 248 98l266 45q35 6 46 17t11 40v33q0 127 -64.5 186.5t-203.5 59.5q-145 0 -211.5 -67.5t-66.5 -196.5l-68 37q-1 143 97 217.5t253 74.5q195 0 277 -100q57 -70 57 -197v-518q0 -71 19 -102t77 -31q36 0 66 10v-61q-32 -12 -86 -12 q-73 0 -109.5 34.5t-36.5 110.5q0 25 2 39h-2q-36 -84 -119 -139.5t-214 -55.5q-151 0 -231.5 83t-80.5 212zM174 270q0 -108 68.5 -168.5t183.5 -60.5q146 0 229.5 97.5t83.5 232.5v180q-18 -13 -135 -33l-147 -26q-52 -10 -83 -17t-74.5 -24t-67 -38.5t-41 -58 t-17.5 -84.5zM272 1393h129l215 -279h-79z" />
<glyph unicode="&#xe1;" horiz-adv-x="978" d="M94 270q0 115 74 183q76 71 248 98l266 45q35 6 46 17t11 40v33q0 127 -64.5 186.5t-203.5 59.5q-145 0 -211.5 -67.5t-66.5 -196.5l-68 37q-1 143 97 217.5t253 74.5q195 0 277 -100q57 -70 57 -197v-518q0 -71 19 -102t77 -31q36 0 66 10v-61q-32 -12 -86 -12 q-73 0 -109.5 34.5t-36.5 110.5q0 25 2 39h-2q-36 -84 -119 -139.5t-214 -55.5q-151 0 -231.5 83t-80.5 212zM174 270q0 -108 68.5 -168.5t183.5 -60.5q146 0 229.5 97.5t83.5 232.5v180q-18 -13 -135 -33l-147 -26q-52 -10 -83 -17t-74.5 -24t-67 -38.5t-41 -58 t-17.5 -84.5zM381 1114l215 279h129l-264 -279h-80z" />
<glyph unicode="&#xe2;" horiz-adv-x="978" d="M94 270q0 115 74 183q76 71 248 98l266 45q35 6 46 17t11 40v33q0 127 -64.5 186.5t-203.5 59.5q-145 0 -211.5 -67.5t-66.5 -196.5l-68 37q-1 143 97 217.5t253 74.5q195 0 277 -100q57 -70 57 -197v-518q0 -71 19 -102t77 -31q36 0 66 10v-61q-32 -12 -86 -12 q-73 0 -109.5 34.5t-36.5 110.5q0 25 2 39h-2q-36 -84 -119 -139.5t-214 -55.5q-151 0 -231.5 83t-80.5 212zM174 270q0 -108 68.5 -168.5t183.5 -60.5q146 0 229.5 97.5t83.5 232.5v180q-18 -13 -135 -33l-147 -26q-52 -10 -83 -17t-74.5 -24t-67 -38.5t-41 -58 t-17.5 -84.5zM184 1114l234 279h106l234 -279h-82l-205 215l-205 -215h-82z" />
<glyph unicode="&#xe3;" horiz-adv-x="978" d="M94 270q0 115 74 183q76 71 248 98l266 45q35 6 46 17t11 40v33q0 127 -64.5 186.5t-203.5 59.5q-145 0 -211.5 -67.5t-66.5 -196.5l-68 37q-1 143 97 217.5t253 74.5q195 0 277 -100q57 -70 57 -197v-518q0 -71 19 -102t77 -31q36 0 66 10v-61q-32 -12 -86 -12 q-73 0 -109.5 34.5t-36.5 110.5q0 25 2 39h-2q-36 -84 -119 -139.5t-214 -55.5q-151 0 -231.5 83t-80.5 212zM170 1180q8 35 26.5 67.5t58 59t91.5 26.5t156 -53q88 -45 133 -45q24 0 42 7.5t30.5 24.5t18.5 29t15 35l58 -22q-44 -138 -166 -138q-60 0 -158 50 q-56 28 -83.5 38.5t-51.5 10.5q-41 0 -68.5 -34t-40.5 -79zM174 270q0 -108 68.5 -168.5t183.5 -60.5q146 0 229.5 97.5t83.5 232.5v180q-18 -13 -135 -33l-147 -26q-52 -10 -83 -17t-74.5 -24t-67 -38.5t-41 -58t-17.5 -84.5z" />
<glyph unicode="&#xe4;" horiz-adv-x="978" d="M94 270q0 115 74 183q76 71 248 98l266 45q35 6 46 17t11 40v33q0 127 -64.5 186.5t-203.5 59.5q-145 0 -211.5 -67.5t-66.5 -196.5l-68 37q-1 143 97 217.5t253 74.5q195 0 277 -100q57 -70 57 -197v-518q0 -71 19 -102t77 -31q36 0 66 10v-61q-32 -12 -86 -12 q-73 0 -109.5 34.5t-36.5 110.5q0 25 2 39h-2q-36 -84 -119 -139.5t-214 -55.5q-151 0 -231.5 83t-80.5 212zM174 270q0 -108 68.5 -168.5t183.5 -60.5q146 0 229.5 97.5t83.5 232.5v180q-18 -13 -135 -33l-147 -26q-52 -10 -83 -17t-74.5 -24t-67 -38.5t-41 -58 t-17.5 -84.5zM268 1157v186h84v-186h-84zM645 1157v186h84v-186h-84z" />
<glyph unicode="&#xe5;" horiz-adv-x="978" d="M94 270q0 115 74 183q76 71 248 98l266 45q35 6 46 17t11 40v33q0 127 -64.5 186.5t-203.5 59.5q-145 0 -211.5 -67.5t-66.5 -196.5l-68 37q-1 143 97 217.5t253 74.5q195 0 277 -100q57 -70 57 -197v-518q0 -71 19 -102t77 -31q36 0 66 10v-61q-32 -12 -86 -12 q-73 0 -109.5 34.5t-36.5 110.5q0 25 2 39h-2q-36 -84 -119 -139.5t-214 -55.5q-151 0 -231.5 83t-80.5 212zM174 270q0 -108 68.5 -168.5t183.5 -60.5q146 0 229.5 97.5t83.5 232.5v180q-18 -13 -135 -33l-147 -26q-52 -10 -83 -17t-74.5 -24t-67 -38.5t-41 -58 t-17.5 -84.5zM317 1264q0 71 49 118.5t119 47.5t119 -47.5t49 -118.5t-49 -118.5t-119 -47.5t-119 47.5t-49 118.5zM373 1264q0 -46 32 -78.5t78 -32.5t78.5 32.5t32.5 78.5t-32.5 78t-78.5 32t-78 -32t-32 -78z" />
<glyph unicode="&#xe6;" horiz-adv-x="1669" d="M94 270q0 115 74 183q76 71 248 98l266 45q35 6 46 17t11 40v33q0 127 -64.5 186.5t-203.5 59.5q-145 0 -211.5 -67.5t-66.5 -196.5l-68 37q-1 143 97 217.5t253 74.5q195 0 277 -100q37 -46 51 -121q54 106 145 164.5t215 58.5q191 0 300.5 -135.5t109.5 -353.5v-18 h-756v-19q0 -122 38.5 -217t122 -153t202.5 -58q61 0 112.5 15t85.5 36t65 54t47.5 59t35.5 61l53 -53q-17 -33 -39 -64t-58 -64.5t-78.5 -57.5t-101 -40t-124.5 -16q-141 0 -243.5 66t-154.5 190q-15 -49 -43.5 -92.5t-72 -81t-108.5 -60t-142 -22.5q-157 0 -238.5 82.5 t-81.5 212.5zM174 270q0 -108 68.5 -168.5t183.5 -60.5q146 0 229.5 97.5t83.5 232.5v180q-18 -13 -135 -33l-147 -26q-52 -10 -83 -17t-74.5 -24t-67 -38.5t-41 -58t-17.5 -84.5zM819 557h670q-1 71 -23 137.5t-62 120.5t-102.5 86.5t-138.5 32.5q-145 0 -235 -99.5 t-109 -277.5z" />
<glyph unicode="&#xe7;" horiz-adv-x="985" d="M100 483q0 234 115.5 375t314.5 141q140 0 235.5 -63.5t143.5 -181.5l-59 -62q-38 116 -121 179t-199 63q-160 0 -254 -120.5t-94 -328.5q0 -205 95 -324.5t253 -119.5q107 0 187.5 55t124.5 158l57 -51q-114 -220 -354 -228l-58 -71q16 4 52 4q70 0 115.5 -37t45.5 -107 q0 -82 -53 -120.5t-133 -38.5q-51 0 -104 16l16 53q47 -14 88 -14q55 0 89 24.5t34 77.5q0 51 -36 73t-89 22q-47 0 -86 -17l-25 33l86 104q-182 15 -284.5 151t-102.5 355z" />
<glyph unicode="&#xe8;" horiz-adv-x="1040" d="M100 483q0 232 117.5 374t312.5 142q191 0 301.5 -135.5t110.5 -353.5v-18h-760v-19q0 -188 94 -308t271 -120q61 0 112.5 15t86 36t65.5 54t48.5 59t35.5 61l53 -53q-22 -42 -53.5 -80.5t-80 -77t-118.5 -61.5t-151 -23q-203 0 -324 136t-121 372zM184 557h674 q-1 71 -23.5 137.5t-62.5 120.5t-103 86.5t-139 32.5q-146 0 -236.5 -99.5t-109.5 -277.5zM293 1393h129l215 -279h-80z" />
<glyph unicode="&#xe9;" horiz-adv-x="1040" d="M100 483q0 232 117.5 374t312.5 142q191 0 301.5 -135.5t110.5 -353.5v-18h-760v-19q0 -188 94 -308t271 -120q61 0 112.5 15t86 36t65.5 54t48.5 59t35.5 61l53 -53q-22 -42 -53.5 -80.5t-80 -77t-118.5 -61.5t-151 -23q-203 0 -324 136t-121 372zM184 557h674 q-1 71 -23.5 137.5t-62.5 120.5t-103 86.5t-139 32.5q-146 0 -236.5 -99.5t-109.5 -277.5zM432 1114l215 279h129l-264 -279h-80z" />
<glyph unicode="&#xea;" horiz-adv-x="1040" d="M100 483q0 232 117.5 374t312.5 142q191 0 301.5 -135.5t110.5 -353.5v-18h-760v-19q0 -188 94 -308t271 -120q61 0 112.5 15t86 36t65.5 54t48.5 59t35.5 61l53 -53q-22 -42 -53.5 -80.5t-80 -77t-118.5 -61.5t-151 -23q-203 0 -324 136t-121 372zM184 557h674 q-1 71 -23.5 137.5t-62.5 120.5t-103 86.5t-139 32.5q-146 0 -236.5 -99.5t-109.5 -277.5zM248 1114l233 279h107l233 -279h-82l-204 215l-205 -215h-82z" />
<glyph unicode="&#xeb;" horiz-adv-x="1040" d="M100 483q0 232 117.5 374t312.5 142q191 0 301.5 -135.5t110.5 -353.5v-18h-760v-19q0 -188 94 -308t271 -120q61 0 112.5 15t86 36t65.5 54t48.5 59t35.5 61l53 -53q-22 -42 -53.5 -80.5t-80 -77t-118.5 -61.5t-151 -23q-203 0 -324 136t-121 372zM184 557h674 q-1 71 -23.5 137.5t-62.5 120.5t-103 86.5t-139 32.5q-146 0 -236.5 -99.5t-109.5 -277.5zM301 1157v209h76v-209h-76zM682 1157v209h76v-209h-76z" />
<glyph unicode="&#xec;" horiz-adv-x="387" d="M-92 1393h129l215 -279h-80zM156 0v975h75v-975h-75z" />
<glyph unicode="&#xed;" horiz-adv-x="387" d="M137 1114l215 279h129l-264 -279h-80zM156 0v975h75v-975h-75z" />
<glyph unicode="&#xee;" horiz-adv-x="387" d="M-84 1114l234 279h106l233 -279h-81l-205 215l-205 -215h-82zM156 0v975h75v-975h-75z" />
<glyph unicode="&#xef;" horiz-adv-x="387" d="M-37 1157v186h84v-186h-84zM156 0v975h75v-975h-75zM340 1157v186h84v-186h-84z" />
<glyph unicode="&#xf0;" horiz-adv-x="1081" d="M100 483q0 240 110.5 378t317.5 138q230 0 344 -215l7 2q-50 220 -172 418l-377 -123l-19 66l357 115q-39 59 -97 124l68 33q53 -61 100 -133l197 64l20 -62l-180 -59q195 -322 195 -707q0 -117 -26.5 -215t-79 -173.5t-137.5 -118t-196 -42.5q-201 0 -316.5 137.5 t-115.5 372.5zM182 485q0 -207 95 -325.5t255 -118.5q158 0 257.5 120t99.5 324q0 208 -97.5 328.5t-259.5 120.5q-170 0 -260 -118.5t-90 -330.5z" />
<glyph unicode="&#xf1;" horiz-adv-x="1034" d="M156 0v975h75v-182h2q30 83 114.5 144.5t215.5 61.5q196 0 275 -141q49 -88 49 -264v-594h-76v532q0 80 -4.5 134.5t-20.5 108.5t-44.5 85t-77.5 50.5t-119 19.5q-135 0 -223 -88q-91 -98 -91 -252v-590h-75zM227 1180q8 35 26.5 67.5t58 59t91.5 26.5t156 -53 q88 -45 133 -45q24 0 42 7.5t30.5 24.5t19 29t15.5 35l57 -22q-44 -138 -166 -138q-60 0 -158 50q-56 28 -83.5 38.5t-51.5 10.5q-41 0 -68 -33.5t-40 -79.5z" />
<glyph unicode="&#xf2;" horiz-adv-x="1062" d="M100 483q0 234 115 375t315 141q201 0 317 -141t116 -375q0 -230 -117.5 -369t-315.5 -139q-197 0 -313.5 139t-116.5 369zM182 485q0 -205 95 -324.5t253 -119.5q159 0 255 120t96 324q0 210 -94.5 329.5t-256.5 119.5q-160 0 -254 -120.5t-94 -328.5zM291 1393h129 l215 -279h-80z" />
<glyph unicode="&#xf3;" horiz-adv-x="1062" d="M100 483q0 234 115 375t315 141q201 0 317 -141t116 -375q0 -230 -117.5 -369t-315.5 -139q-197 0 -313.5 139t-116.5 369zM182 485q0 -205 95 -324.5t253 -119.5q159 0 255 120t96 324q0 210 -94.5 329.5t-256.5 119.5q-160 0 -254 -120.5t-94 -328.5zM440 1114l215 279 h129l-264 -279h-80z" />
<glyph unicode="&#xf4;" horiz-adv-x="1062" d="M100 483q0 234 115 375t315 141q201 0 317 -141t116 -375q0 -230 -117.5 -369t-315.5 -139q-197 0 -313.5 139t-116.5 369zM182 485q0 -205 95 -324.5t253 -119.5q159 0 255 120t96 324q0 210 -94.5 329.5t-256.5 119.5q-160 0 -254 -120.5t-94 -328.5zM244 1114l233 279 h107l233 -279h-82l-205 215l-204 -215h-82z" />
<glyph unicode="&#xf5;" horiz-adv-x="1062" d="M100 483q0 234 115 375t315 141q201 0 317 -141t116 -375q0 -230 -117.5 -369t-315.5 -139q-197 0 -313.5 139t-116.5 369zM182 485q0 -205 95 -324.5t253 -119.5q159 0 255 120t96 324q0 210 -94.5 329.5t-256.5 119.5q-160 0 -254 -120.5t-94 -328.5zM219 1180 q8 35 26.5 67.5t58 59t91.5 26.5t156 -53q88 -45 133 -45q24 0 42 7.5t30.5 24.5t19 29t15.5 35l57 -22q-44 -138 -166 -138q-60 0 -158 50q-56 28 -83.5 38.5t-51.5 10.5q-41 0 -68 -33.5t-40 -79.5z" />
<glyph unicode="&#xf6;" horiz-adv-x="1062" d="M100 483q0 234 115 375t315 141q201 0 317 -141t116 -375q0 -230 -117.5 -369t-315.5 -139q-197 0 -313.5 139t-116.5 369zM182 485q0 -205 95 -324.5t253 -119.5q159 0 255 120t96 324q0 210 -94.5 329.5t-256.5 119.5q-160 0 -254 -120.5t-94 -328.5zM303 1157v186h84 v-186h-84zM680 1157v186h84v-186h-84z" />
<glyph unicode="&#xf7;" horiz-adv-x="1695" d="M160 465v57h1376v-57h-1376zM799 0v233h98v-233h-98zM799 741v234h98v-234h-98z" />
<glyph unicode="&#xf8;" horiz-adv-x="1062" d="M100 483q0 234 115 375t315 141q176 0 287 -108l103 133l57 -43l-113 -145q99 -141 99 -353q0 -230 -117.5 -369t-315.5 -139q-154 0 -262 88l-100 -131l-55 43l104 138q-117 135 -117 370zM182 485q0 -191 84 -311l506 657q-92 103 -242 103q-160 0 -254 -120.5 t-94 -328.5zM313 121q86 -80 217 -80q159 0 255 120t96 324q0 168 -66 287z" />
<glyph unicode="&#xf9;" horiz-adv-x="1024" d="M147 381v594h76v-533q0 -82 4 -134.5t19 -107.5t42.5 -85.5t76 -50t118.5 -19.5q131 0 219 88q91 98 91 252v590h75v-975h-75v176h-2q-38 -85 -117.5 -143t-208.5 -58q-189 0 -268 142q-50 90 -50 264zM287 1393h129l215 -279h-80z" />
<glyph unicode="&#xfa;" horiz-adv-x="1024" d="M147 381v594h76v-533q0 -82 4 -134.5t19 -107.5t42.5 -85.5t76 -50t118.5 -19.5q131 0 219 88q91 98 91 252v590h75v-975h-75v176h-2q-38 -85 -117.5 -143t-208.5 -58q-189 0 -268 142q-50 90 -50 264zM401 1114l215 279h129l-264 -279h-80z" />
<glyph unicode="&#xfb;" horiz-adv-x="1024" d="M147 381v594h76v-533q0 -82 4 -134.5t19 -107.5t42.5 -85.5t76 -50t118.5 -19.5q131 0 219 88q91 98 91 252v590h75v-975h-75v176h-2q-38 -85 -117.5 -143t-208.5 -58q-189 0 -268 142q-50 90 -50 264zM231 1114l234 279h106l234 -279h-82l-205 215l-205 -215h-82z" />
<glyph unicode="&#xfc;" horiz-adv-x="1024" d="M147 381v594h76v-533q0 -82 4 -134.5t19 -107.5t42.5 -85.5t76 -50t118.5 -19.5q131 0 219 88q91 98 91 252v590h75v-975h-75v176h-2q-38 -85 -117.5 -143t-208.5 -58q-189 0 -268 142q-50 90 -50 264zM289 1157v186h84v-186h-84zM666 1157v186h84v-186h-84z" />
<glyph unicode="&#xfd;" horiz-adv-x="880" d="M49 975h86l248 -694l55 -162h2q18 57 62 168l262 688h82l-432 -1108q-53 -136 -82 -184q-31 -50 -71 -73.5t-105 -23.5q-51 0 -95 19v78q42 -25 99 -25q49 0 78 23q33 26 71 122l86 220zM342 1114l215 279h129l-264 -279h-80z" />
<glyph unicode="&#xfe;" horiz-adv-x="1085" d="M156 -389v1782h75v-621h2q34 96 121.5 161.5t214.5 65.5q197 0 305.5 -137.5t108.5 -378.5q0 -235 -112.5 -371.5t-301.5 -136.5q-247 0 -336 224h-2v-588h-75zM225 485q0 -211 90.5 -327.5t247.5 -116.5q160 0 249 117t89 329q0 214 -91.5 330.5t-250.5 116.5 q-155 0 -244.5 -117t-89.5 -332z" />
<glyph unicode="&#xff;" horiz-adv-x="880" d="M49 975h86l248 -694l55 -162h2q18 57 62 168l262 688h82l-432 -1108q-53 -136 -82 -184q-31 -50 -71 -73.5t-105 -23.5q-51 0 -95 19v78q42 -25 99 -25q49 0 78 23q33 26 71 122l86 220zM229 1157v186h84v-186h-84zM606 1157v186h84v-186h-84z" />
<glyph unicode="&#x152;" horiz-adv-x="2050" d="M109 692q0 176 52.5 314t147 227.5t224.5 136.5t288 47q116 0 242 -24h868v-76h-788v-559h717v-76h-717v-606h831v-76h-911q-134 -25 -248 -25q-157 0 -284.5 43.5t-222.5 130t-147 224.5t-52 319zM190 692q0 -163 51 -290t140.5 -204.5t202 -117t243.5 -39.5 q112 0 236 31v1245q-135 29 -242 29q-108 0 -201 -23.5t-173 -74.5t-136.5 -126.5t-88.5 -185t-32 -244.5z" />
<glyph unicode="&#x153;" horiz-adv-x="1798" d="M100 483q0 235 113 375.5t313 140.5q142 0 238 -72.5t141 -195.5q50 127 149.5 197.5t235.5 70.5q191 0 301.5 -136.5t110.5 -352.5v-16h-760v-21q0 -188 94 -308t271 -120q61 0 112.5 15t86 36t65.5 54t48.5 59t35.5 61l53 -53q-17 -33 -39 -64t-58.5 -64.5t-78.5 -57.5 t-101.5 -40t-125.5 -16q-142 0 -246.5 68.5t-155.5 196.5q-44 -123 -137 -194t-240 -71q-197 0 -311.5 138.5t-114.5 369.5zM182 485q0 -206 93 -325t251 -119t251 119.5t93 324.5q0 211 -91.5 330t-252.5 119q-160 0 -252 -120t-92 -329zM944 559h674q-2 70 -24.5 136 t-62.5 119.5t-103 86.5t-138 33q-145 0 -235.5 -98.5t-110.5 -276.5z" />
<glyph unicode="&#x178;" horiz-adv-x="1126" d="M16 1393h97l454 -711l449 711h90l-502 -795v-598h-80v598zM336 1597v187h84v-187h-84zM713 1597v187h84v-187h-84z" />
<glyph unicode="&#x2c6;" horiz-adv-x="921" d="M162 1114l233 279h107l233 -279h-82l-204 215l-205 -215h-82z" />
<glyph unicode="&#x2dc;" horiz-adv-x="921" d="M141 1180q8 35 26.5 67.5t58 59t91.5 26.5t156 -53q88 -45 133 -45q24 0 42 7.5t30.5 24.5t19 29t15.5 35l57 -22q-44 -138 -166 -138q-60 0 -158 50q-56 28 -83.5 38.5t-51.5 10.5q-41 0 -68 -33.5t-40 -79.5z" />
<glyph unicode="&#x2000;" horiz-adv-x="929" />
<glyph unicode="&#x2001;" horiz-adv-x="1858" />
<glyph unicode="&#x2002;" horiz-adv-x="929" />
<glyph unicode="&#x2003;" horiz-adv-x="1858" />
<glyph unicode="&#x2004;" horiz-adv-x="619" />
<glyph unicode="&#x2005;" horiz-adv-x="464" />
<glyph unicode="&#x2006;" horiz-adv-x="309" />
<glyph unicode="&#x2007;" horiz-adv-x="309" />
<glyph unicode="&#x2008;" horiz-adv-x="232" />
<glyph unicode="&#x2009;" horiz-adv-x="371" />
<glyph unicode="&#x200a;" horiz-adv-x="103" />
<glyph unicode="&#x2010;" horiz-adv-x="833" d="M133 510v74h567v-74h-567z" />
<glyph unicode="&#x2011;" horiz-adv-x="833" d="M133 510v74h567v-74h-567z" />
<glyph unicode="&#x2012;" horiz-adv-x="833" d="M133 510v74h567v-74h-567z" />
<glyph unicode="&#x2013;" horiz-adv-x="1308" d="M133 522v58h1043v-58h-1043z" />
<glyph unicode="&#x2014;" horiz-adv-x="1697" d="M133 522v58h1432v-58h-1432z" />
<glyph unicode="&#x2018;" horiz-adv-x="364" d="M131 862v250q0 110 14 170q24 94 99 131v-70q-35 -34 -46.5 -83.5t-11.5 -143.5v-20h43v-234h-98z" />
<glyph unicode="&#x2019;" horiz-adv-x="358" d="M125 842v69q35 33 46 83t11 145v20h-43v234h99v-250q0 -106 -15 -170q-24 -95 -98 -131z" />
<glyph unicode="&#x201a;" horiz-adv-x="368" d="M121 -248q35 33 46 83t11 145v20h-43v233h98v-249q0 -110 -14 -170q-24 -95 -98 -131v69z" />
<glyph unicode="&#x201c;" horiz-adv-x="649" d="M131 862v250q0 110 14 170q24 94 99 131v-70q-35 -34 -46.5 -83.5t-11.5 -143.5v-20h43v-234h-98zM416 862v250q0 110 14 170q24 95 98 131v-70q-35 -33 -46 -82.5t-11 -144.5v-20h43v-234h-98z" />
<glyph unicode="&#x201d;" horiz-adv-x="643" d="M125 842v69q35 33 46 83t11 145v20h-43v234h99v-250q0 -106 -15 -170q-24 -95 -98 -131zM410 842v69q35 33 46 83t11 145v20h-43v234h98v-250q0 -111 -14 -170q-24 -95 -98 -131z" />
<glyph unicode="&#x201e;" horiz-adv-x="653" d="M121 -248q35 33 46 83t11 145v20h-43v233h98v-249q0 -110 -14 -170q-24 -95 -98 -131v69zM406 -248q35 33 46 83t11 145v20h-43v233h98v-249q0 -110 -14 -170q-24 -95 -98 -131v69z" />
<glyph unicode="&#x2022;" horiz-adv-x="724" d="M164 702q0 79 58 137t138 58q82 0 141.5 -58t59.5 -137q0 -83 -59.5 -140.5t-141.5 -57.5q-80 0 -138 57.5t-58 140.5z" />
<glyph unicode="&#x2026;" horiz-adv-x="1734" d="M135 0v233h98v-233h-98zM817 0v233h98v-233h-98zM1501 0v233h98v-233h-98z" />
<glyph unicode="&#x202f;" horiz-adv-x="371" />
<glyph unicode="&#x2039;" horiz-adv-x="503" d="M104 549v72l277 325v-112l-215 -246l215 -250v-115z" />
<glyph unicode="&#x203a;" horiz-adv-x="503" d="M123 223v115l215 250l-215 246v112l276 -325v-72z" />
<glyph unicode="&#x205f;" horiz-adv-x="464" />
<glyph unicode="&#x20ac;" horiz-adv-x="1261" d="M72 508l24 67h144q-4 35 -4 119q0 39 4 113h-168l24 67h150q16 122 53 219t96 170.5t144 113.5t192 40q307 0 428 -323l-67 -52q-48 143 -138.5 223.5t-222.5 80.5q-168 0 -270 -127.5t-133 -344.5h569l-23 -67h-552q-5 -44 -5 -109q0 -77 5 -123h479l-23 -67h-450 q56 -461 403 -461q274 0 365 293l67 -35q-115 -330 -432 -330q-112 0 -200 41.5t-145 116t-91.5 168t-48.5 207.5h-174z" />
<glyph unicode="&#x2122;" horiz-adv-x="1798" d="M102 1327v66h658v-66h-295v-829h-70v829h-293zM877 498v895h102l231 -641q14 -38 27.5 -80.5t20.5 -65.5l6 -24q18 82 49 170l215 641h102v-895h-69v628q0 97 4 179h-4q-11 -44 -39 -129l-232 -678h-59l-244 673l-41 134h-4q4 -109 4 -195v-612h-69z" />
<glyph unicode="&#xe000;" horiz-adv-x="975" d="M0 0v975h975v-975h-975z" />
</font>
</defs>
</svg>
