<?xml version="1.0" standalone="no"?>
<!DOCTYPE svg PUBLIC "-//W3C//DTD SVG 1.1//EN" "http://www.w3.org/Graphics/SVG/1.1/DTD/svg11.dtd" >
<svg xmlns="http://www.w3.org/2000/svg">
<metadata>
This is a custom SVG webfont generated by Font Squirrel.
Copyright   : Copyright c 1991 Adobe Systems Incorporated  All Rights ReservedBerthold Akzidenz Grotesk is a registered trademark of H Berthold AG
</metadata>
<defs>
<font id="webfontdJa7PWdS" horiz-adv-x="750" >
<font-face units-per-em="1000" ascent="800" descent="-200" />
<missing-glyph horiz-adv-x="375" />
<glyph unicode=" "  horiz-adv-x="375" />
<glyph unicode="&#x09;" horiz-adv-x="375" />
<glyph unicode="&#xa0;" horiz-adv-x="375" />
<glyph unicode="!" horiz-adv-x="333" d="M107 436v270h163v-270l-26 -228h-113zM107 0v125h163v-125h-163z" />
<glyph unicode="&#x22;" horiz-adv-x="396" d="M363 680l-47 -259h-27l-47 247q-2 12 -2 22q0 29 20 44t45 15q41 0 54 -31q6 -13 4 -38zM155 680l-47 -259h-27l-47 247q-2 12 -2 22q0 29 20 44t45 15q39 0 54 -31q6 -13 4 -38z" />
<glyph unicode="#" horiz-adv-x="667" d="M466 214l-31 -214h-101l31 214h-99l-30 -214h-102l30 214h-122v99h135l13 95h-125v100h138l27 198h104l-28 -198h98l27 198h101l-27 -198h117v-100h-130l-14 -95h123v-99h-135zM278 313h100l13 95h-99z" />
<glyph unicode="$" horiz-adv-x="812" d="M371 728v101h81v-102q106 -7 179 -40q77 -35 138 -109l-162 -63q-22 30 -52.5 48t-50 22.5t-52.5 9.5v-165q111 -19 161 -32.5t87 -40.5q71 -53 71 -146q0 -90 -72 -153q-34 -29 -83 -47t-79.5 -22.5t-83.5 -9.5v-126h-82v126q-135 5 -214 50q-28 16 -50.5 35.5 t-40.5 42.5t-26 36l-21 35l164 41q8 -16 16 -27.5t27.5 -30t56.5 -32t88 -19.5v184q-53 7 -84.5 13t-77 22.5t-73.5 40.5q-63 52 -63 139q0 111 107 172q62 36 191 47zM371 444v156q-55 -4 -81 -16q-46 -22 -46 -64q0 -32 29 -49t98 -27zM452 281v-172q144 14 144 92 q0 38 -31.5 52.5t-112.5 27.5z" />
<glyph unicode="%" horiz-adv-x="1125" d="M321 19l408 652l72 -45l-409 -652zM243 656q97 3 164.5 -52.5t67.5 -175.5q0 -100 -49 -159q-29 -34 -76.5 -53t-99.5 -19q-116 0 -177 74q-48 59 -48 154q0 107 55.5 167t162.5 64zM242 566q-97 -7 -97 -140q0 -64 26.5 -101t77.5 -37q49 0 74 36q27 38 27 110 q0 97 -56 124q-21 10 -52 8zM859 449q106 4 172 -54t66 -176q0 -129 -80 -186q-62 -43 -145 -43q-50 0 -97.5 18t-76.5 52q-51 61 -51 157q0 99 48 160q57 69 164 72zM863 359q-96 -8 -96 -140q0 -58 24.5 -98t80.5 -40q55 0 77.5 43.5t22.5 104.5q0 60 -25 97t-84 33z" />
<glyph unicode="&#x26;" horiz-adv-x="792" d="M579 0l-33 37q-46 -18 -70.5 -26t-65 -15t-88.5 -7q-121 0 -198.5 50t-77.5 147q0 36 13.5 65t31 46t48.5 32t50.5 21.5t52.5 15.5q-25 26 -37 41t-23.5 40t-11.5 51q0 65 59.5 110t164.5 45q92 0 156 -37.5t64 -115.5q0 -34 -11.5 -60.5t-37.5 -47t-45.5 -32 t-57.5 -30.5l110 -117q19 21 34 49l159 -12q-20 -47 -39.5 -74.5t-57.5 -60.5l111 -115h-200zM381 414q20 8 31 13.5t26.5 15t23 21.5t7.5 27q0 20 -17 36.5t-56 16.5q-30 0 -48 -13t-18 -33q0 -31 51 -84zM459 131l-137 148q-67 -23 -94 -41t-27 -53q0 -37 34 -62t90 -25 t134 33z" />
<glyph unicode="'" horiz-adv-x="208" d="M165 680l-47 -259h-27l-47 247q0 3 -0.5 10.5t-0.5 11.5q0 29 19.5 44t45.5 15q40 0 53 -31q6 -13 4 -38z" />
<glyph unicode="(" horiz-adv-x="375" d="M351 -110l-45 -49q-41 28 -77 63q-178 170 -178 394q0 70 18 135t42.5 110.5t63 90.5t66.5 70t65 54l45 -46q-24 -30 -45 -61q-110 -172 -110 -367q0 -152 61 -266q37 -75 94 -128z" />
<glyph unicode=")" horiz-adv-x="375" d="M22 709l45 49q41 -28 77 -63q178 -167 178 -395q0 -70 -18 -134.5t-42.5 -110t-62.5 -90.5t-66.5 -70.5t-65.5 -54.5l-45 46q155 190 155 429q0 151 -61 266q-40 76 -94 128z" />
<glyph unicode="*" horiz-adv-x="417" d="M178 568l-13 139h89l-15 -139l127 57l29 -85l-137 -30l94 -105l-73 -53l-71 124l-68 -124l-72 52l92 107l-138 29l29 86z" />
<glyph unicode="+" horiz-adv-x="667" d="M386 240v-240h-103v240h-241v102h241v241h103v-241h240v-102h-240z" />
<glyph unicode="," horiz-adv-x="292" d="M63 0v143h166v-134q0 -60 -12 -89q-10 -25 -28 -40.5t-43 -22t-41.5 -8t-41.5 -2.5v49q50 5 66.5 26.5t16.5 77.5h-83z" />
<glyph unicode="-" horiz-adv-x="396" d="M70 217v124h283v-124h-283z" />
<glyph unicode="." horiz-adv-x="292" d="M64 143h164v-143h-164v143z" />
<glyph unicode="/" horiz-adv-x="500" d="M22 0l315 706h142l-314 -706h-143z" />
<glyph unicode="0" d="M365 666q69 1 128.5 -17.5t108 -57t76.5 -106t28 -156.5q0 -165 -89.5 -253t-241.5 -88q-170 0 -260 109q-71 85 -71 231q0 160 87.5 247.5t233.5 90.5zM369 539q-25 0 -55 -10q-50 -19 -73 -64q-28 -55 -28 -140q0 -39 8 -74t25 -66.5t49.5 -50.5t76.5 -19q37 0 66 14 t45.5 36t27.5 52.5t14.5 59.5t3.5 62q0 86 -28 133q-42 70 -132 67z" />
<glyph unicode="1" d="M306 0v488q-45 -25 -80 -35t-104 -19v118q134 21 200 100h150v-652h-166z" />
<glyph unicode="2" d="M237 439h-166q3 30 7.5 50.5t14.5 47.5t29 49t47 38q75 42 202 42q20 0 38.5 -1t52 -5t60.5 -11.5t58.5 -23t52.5 -36t35.5 -53.5t14.5 -73q0 -68 -41 -120q-32 -39 -84.5 -63.5t-182.5 -70.5q-72 -25 -96 -39t-42 -42h431v-128h-617q3 121 51 191q52 75 186 127l127 48 q21 8 32.5 13.5t27.5 16.5t23.5 27t7.5 37q0 82 -137 82q-81 0 -113 -45q-15 -19 -19 -58z" />
<glyph unicode="3" d="M276 279v109q172 -3 198 15q38 20 38 63q0 79 -134 79q-45 0 -75.5 -7.5t-45 -22t-19.5 -24.5t-10 -28l-172 7q31 196 320 196q40 0 76 -3t81.5 -13.5t78 -28.5t55 -52t22.5 -79q0 -59 -35 -96t-97 -50q-21 -4 -29 -5l30 -3q78 -9 112 -49.5t34 -88.5q0 -96 -93.5 -154.5 t-243.5 -58.5q-164 0 -256 74q-59 47 -76 152l173 9q9 -50 28 -70q35 -38 130 -38q85 0 128 28q36 23 36 65q0 26 -11.5 42t-36.5 23t-46.5 8.5t-58.5 1.5q-101 0 -101 -1z" />
<glyph unicode="4" d="M44 250l370 399h173v-399h108v-116h-108v-134h-163v134h-380v116zM424 250l2 177q0 28 1 41q1 16 5 41q0 -2 -21.5 -27.5t-27.5 -31.5l-181 -200h222z" />
<glyph unicode="5" d="M662 531h-403l-16 -131q31 28 68 42q55 20 120 20q51 0 96.5 -13t83 -39t59.5 -70t22 -100q0 -83 -47 -144q-83 -109 -277 -109q-74 0 -131.5 15.5t-89 35t-55.5 51t-31.5 49t-15.5 42.5l169 18q10 -33 32 -51q45 -37 123 -37q77 0 116.5 36.5t39.5 88.5q0 56 -44 88.5 t-114 32.5q-97 0 -133 -69h-152l31 362h557z" />
<glyph unicode="6" d="M699 491l-170 -15q-16 21 -27 33t-43 26t-73 14q-73 0 -119 -41q-24 -21 -38 -51t-17 -49.5t-5 -49.5q87 80 216 80q133 0 205.5 -62.5t72.5 -153.5q0 -92 -69 -157q-84 -80 -245 -80q-77 0 -136.5 18t-97.5 48t-63 73t-35 89.5t-10 99.5q0 80 23 144t59 103t84 64.5 t94 35.5t92 10q175 0 259 -100q23 -27 43 -79zM364 322q-63 -2 -103 -30.5t-40 -73.5q0 -31 19 -56q39 -51 138 -51q65 0 110 25.5t45 80.5q0 42 -29.5 67.5t-64.5 32.5t-75 5z" />
<glyph unicode="7" d="M473 527h-399v121h601v-107q-21 -10 -31 -16q-72 -40 -139 -125q-45 -57 -73.5 -113t-41.5 -113t-17 -88.5t-7 -85.5h-177q9 69 17.5 113.5t38.5 119.5t78 142q58 83 150 152z" />
<glyph unicode="8" d="M527 339q5 -1 15 -2t15 -2q45 -8 76.5 -28t44.5 -45.5t17.5 -44t4.5 -35.5q0 -95 -92 -146t-235 -51q-147 0 -235 53t-88 146q0 72 54 115q39 30 120 40q-65 11 -99 41q-50 42 -50 108q0 36 15 67q27 55 98.5 85.5t180.5 30.5q63 0 113.5 -9.5t81.5 -23t54 -33.5 t33.5 -36.5t16.5 -37t6.5 -29t0.5 -17.5q0 -43 -26.5 -82.5t-92.5 -57.5zM371 551q-16 0 -32 -2t-41.5 -9t-41 -25.5t-15.5 -45.5q0 -82 141 -82q65 0 95.5 22.5t30.5 57.5q0 84 -137 84zM374 288q-82 -1 -116 -27q-33 -23 -33 -63q0 -24 11 -41q32 -52 132 -52q69 0 105 17 q52 24 52 76q0 29 -20 51q-38 43 -131 39z" />
<glyph unicode="9" d="M41 169l164 14q34 -72 142 -72q88 0 136 50q18 19 29 45.5t14.5 44.5t7.5 52q-34 -33 -71 -48q-70 -32 -162 -32q-71 0 -123 18.5t-80 50t-41 66.5t-13 74q0 107 84.5 174t238.5 67q158 0 239 -78q86 -82 86 -244q0 -103 -33 -183q-76 -181 -331 -181q-150 0 -231 79 q-39 38 -56 103zM352 552q-65 -2 -105 -28t-40 -79q0 -102 143 -102q173 0 173 103q0 36 -17.5 59.5t-47 33t-54.5 12t-52 1.5z" />
<glyph unicode=":" horiz-adv-x="333" d="M106 287v143h164v-143h-164zM106 0v142h164v-142h-164z" />
<glyph unicode=";" horiz-adv-x="333" d="M106 289v141h164v-141h-164zM104 0v143h166v-134q0 -60 -12 -89q-10 -25 -28 -40.5t-43 -22t-41.5 -8t-41.5 -2.5v49q50 5 66.5 27t17.5 77h-84z" />
<glyph unicode="&#x3c;" horiz-adv-x="667" d="M667 109v-112l-667 303v104l667 305v-113l-529 -244z" />
<glyph unicode="=" horiz-adv-x="667" d="M667 249v-103h-667v103h667zM667 437v-103h-667v103h667z" />
<glyph unicode="&#x3e;" horiz-adv-x="667" d="M667 300l-667 -303v112l528 243l-528 244v113l667 -305v-104z" />
<glyph unicode="?" horiz-adv-x="688" d="M222 484l-160 8q12 104 56 153q72 78 245 78q161 0 238 -71q58 -53 58 -130q0 -60 -37.5 -104.5t-123.5 -91.5q-42 -24 -50.5 -42t-8.5 -77h-165v52q0 33 4 49.5t18 31.5q10 12 97 70q54 36 75.5 58.5t21.5 53.5q0 37 -31 61q-33 25 -106 25q-23 0 -38.5 -2.5t-39 -13 t-37.5 -38t-16 -70.5zM274 0v125h165v-125h-165z" />
<glyph unicode="@" horiz-adv-x="896" d="M783 88l40 -50q-165 -162 -367 -162q-68 0 -133 19.5t-123.5 60t-94.5 112.5t-36 166q0 127 59.5 236.5t166 175.5t234.5 66q137 0 217.5 -80.5t80.5 -209.5q0 -89 -33 -171.5t-87.5 -132.5t-113.5 -50q-22 0 -40 8q-41 18 -47 69q-57 -77 -134 -77q-58 0 -96.5 42.5 t-38.5 123.5q0 110 63 198t151 88q72 0 110 -73l12 52h79l-33 -155q-28 -131 -28 -166q0 -38 25 -38q42 0 91 87t49 192q0 115 -68.5 170.5t-165.5 55.5q-154 0 -269 -122t-115 -287q0 -79 29.5 -138.5t77.5 -92t100.5 -47.5t107.5 -15q136 0 260 86q37 26 70 59zM532 348 q0 46 -22 70.5t-53 24.5q-56 0 -92.5 -66t-36.5 -138q0 -26 7 -45.5t16 -28.5t21 -14t17.5 -5.5t10.5 -0.5q45 0 83 50q25 33 37 77t12 76z" />
<glyph unicode="A" horiz-adv-x="875" d="M1 0l341 706h191l341 -706h-198l-60 133h-362l-60 -133h-193zM559 258l-105 231q-7 12 -12 28q-5 14 -6 28q-3 -9 -7 -25q-2 -4 -5.5 -13l-5.5 -14l-107 -235h248z" />
<glyph unicode="B" horiz-adv-x="854" d="M77 0v706h458q38 -1 59 -3t53.5 -8.5t56.5 -22t41 -39.5q28 -40 28 -100q0 -56 -28 -94q-31 -40 -89 -56q22 -6 34 -10t38 -18t41 -31t27.5 -49t12.5 -72q0 -70 -32 -119q-19 -29 -45 -47.5t-59.5 -25.5t-53.5 -8.5t-57 -2.5h-485zM252 583v-155h253q38 0 57 7 q42 17 42 72q0 26 -8.5 43t-24.5 23.5t-26.5 8t-25.5 1.5h-267zM252 305v-181h265q18 0 28 0.5t29 5.5t29.5 14t19.5 28.5t9 47.5q0 85 -93 85h-287z" />
<glyph unicode="C" horiz-adv-x="896" d="M704 239l186 1q-9 -29 -16 -47.5t-27 -48.5t-49 -57q-122 -111 -331 -111q-193 0 -309 98.5t-116 279.5q0 96 36 170t98.5 117.5t138 65t162.5 21.5q32 0 65 -3t85.5 -16.5t96.5 -35.5t88 -65t70 -100l-194 -24q-72 114 -211 114q-116 0 -183.5 -70.5t-67.5 -175.5 q0 -111 75 -178.5t180 -67.5q44 0 80 10.5t57.5 23t41 34.5t27 33.5t17.5 31.5z" />
<glyph unicode="D" horiz-adv-x="896" d="M77 0v706h386q65 -2 78 -4q149 -14 228.5 -108.5t79.5 -236.5q0 -134 -69 -226q-28 -37 -64 -63t-66 -39t-73.5 -19.5t-67.5 -8t-68 -1.5h-364zM457 581h-204v-456h195q32 1 50 2.5t45.5 7t48.5 20.5t38 39q43 59 43 167q0 89 -35 145q-21 34 -56 51.5t-59 20t-66 3.5z " />
<glyph unicode="E" horiz-adv-x="792" d="M77 0v706h658v-127h-481v-159h465v-125h-465v-169h501v-126h-678z" />
<glyph unicode="F" horiz-adv-x="729" d="M78 0v706h653v-127h-477v-181h449v-125h-449v-273h-176z" />
<glyph unicode="G" horiz-adv-x="958" d="M761 0v81q-105 -102 -292 -102q-96 0 -172 23.5t-122.5 60.5t-77 87.5t-42.5 101t-12 104.5q0 145 96 249q117 125 355 125q167 0 277 -67q35 -22 63 -50.5t38 -44t24 -39.5l-195 -27q-16 19 -28 31t-38 30t-63.5 27t-84.5 9q-116 0 -189 -65t-73 -180q0 -107 71 -176.5 t196 -69.5q120 0 198 62q8 6 14.5 12.5l11 11t9 11.5t7 10.5t5.5 10t4 8.5t4 9t3 8h-232v127h380v-378h-135z" />
<glyph unicode="H" horiz-adv-x="938" d="M77 0v706h177v-272h427v272h177v-706h-177v303h-427v-303h-177z" />
<glyph unicode="I" horiz-adv-x="333" d="M78 0v706h177v-706h-177z" />
<glyph unicode="J" horiz-adv-x="479" d="M226 706h175v-483q-1 -39 -3.5 -63.5t-18 -61.5t-44.5 -61q-62 -53 -173 -53q-48 0 -129 18v146q74 -12 101 -12q92 0 92 94v476z" />
<glyph unicode="K" horiz-adv-x="833" d="M78 0v706h175v-309l345 309h227l-344 -298l392 -408h-236l-277 304l-107 -92v-212h-175z" />
<glyph unicode="L" horiz-adv-x="667" d="M78 0v706h177v-576h392v-130h-569z" />
<glyph unicode="M" horiz-adv-x="1104" d="M77 0v706h255l184 -432q25 -60 36 -105q9 38 33 97l184 440h253v-706h-167v494q0 19 7 66q-8 -24 -20 -54l-211 -506h-161l-211 496q-10 25 -21 64q5 -51 6 -63v-497h-167z" />
<glyph unicode="N" horiz-adv-x="938" d="M77 0v706h176l346 -393l94 -114q-6 63 -7 146v361h169v-706h-175l-350 398l-91 111q5 -51 6 -120v-389h-168z" />
<glyph unicode="O" horiz-adv-x="958" d="M450 728q114 5 218.5 -28.5t166.5 -108.5q76 -92 76 -231q0 -174 -111.5 -278.5t-319.5 -104.5q-209 0 -322.5 102.5t-113.5 272.5q0 176 112 272t294 104zM470 601q-46 -2 -88.5 -18t-77.5 -45.5t-56.5 -78.5t-21.5 -111q0 -89 45 -148q69 -97 206 -97q119 0 186 70.5 t67 177.5q0 116 -75.5 185t-184.5 65z" />
<glyph unicode="P" horiz-adv-x="792" d="M76 0v707h436q36 0 61 -2t59 -9t61 -25.5t47 -46.5q39 -56 39 -139q0 -88 -48 -145q-39 -47 -94 -60.5t-140 -13.5h-247v-266h-174zM250 584v-194h218q29 0 46.5 2t41 10t35.5 29t12 54q0 50 -30 78q-17 15 -39.5 18t-84.5 3h-199z" />
<glyph unicode="Q" horiz-adv-x="958" d="M958 45l-80 -133l-177 107q-96 -42 -223 -42q-204 0 -319 101.5t-115 273.5q0 94 34 167.5t93.5 118.5t137.5 68t169 23q112 0 206.5 -35t150.5 -103q76 -92 76 -231q0 -89 -31 -163q-16 -39 -52 -86zM470 601q-46 -2 -88.5 -18t-77.5 -45.5t-56.5 -78.5t-21.5 -111 q0 -89 45 -148q69 -97 206 -97q119 0 186 70.5t67 177.5q0 116 -75.5 185t-184.5 65z" />
<glyph unicode="R" horiz-adv-x="854" d="M78 0v706h486q72 0 122 -14.5t90 -60.5q46 -54 46 -136q0 -104 -68 -156q-40 -31 -115 -44l214 -295h-208l-189 284h-201v-284h-177zM255 582v-173h282q106 0 106 84q0 35 -14 55q-8 11 -16 17t-29.5 11.5t-54.5 5.5h-274z" />
<glyph unicode="S" horiz-adv-x="812" d="M21 177l161 42q52 -111 237 -111q23 0 47 3t57 11t53.5 28.5t20.5 50.5q0 34 -24 48.5t-63 21.5q-16 3 -105 17.5l-102 16.5q-30 5 -50 10t-57.5 20.5t-61 35.5t-42 56t-18.5 81q0 55 28 100q75 120 301 120q155 0 255 -55q71 -38 117 -114l-168 -42q-20 37 -62 58 q-55 27 -142 27q-158 0 -158 -82q0 -31 23 -45t71 -25q13 -3 100.5 -18t105.5 -19q33 -6 55.5 -11.5t57 -20.5t55.5 -35t37 -54.5t16 -78.5q0 -47 -15.5 -84.5t-39.5 -61.5t-59 -41.5t-66 -26.5t-69.5 -14t-61 -6t-48.5 -1q-285 0 -386 199z" />
<glyph unicode="T" horiz-adv-x="729" d="M12 577v129h701v-129h-262v-577h-177v577h-262z" />
<glyph unicode="U" horiz-adv-x="917" d="M75 296v410h176v-415q0 -53 16.5 -89.5t63.5 -58.5q57 -27 160 -23q97 9 138 56q32 38 30 114v416h176v-410q-1 -51 -3 -76.5t-16 -65t-42 -70.5q-51 -56 -137.5 -82t-178.5 -26q-80 0 -149 17q-69 16 -122 51q-40 27 -64 57.5t-34 67t-12 61t-2 66.5z" />
<glyph unicode="V" horiz-adv-x="812" d="M319 0l-319 706h195l189 -463q13 -35 21 -67q12 42 23 67l190 463h190l-317 -706h-172z" />
<glyph unicode="W" horiz-adv-x="1062" d="M185 0l-185 706h171l92 -424q9 -46 15 -94q8 51 22 99l139 419h184l133 -393q18 -54 28 -118q4 53 15 112l90 399h169l-185 -706h-173l-143 428q-16 49 -26 103q-10 -41 -27 -100l-143 -431h-176z" />
<glyph unicode="X" horiz-adv-x="875" d="M323 370l-282 336h221l155 -207q12 -13 20 -30q5 15 17 31l161 206h217l-281 -336l322 -370h-224l-196 243q-11 16 -16 29q-8 -18 -18 -32l-194 -240h-225z" />
<glyph unicode="Y" horiz-adv-x="854" d="M337 265l-336 441h218l187 -266q13 -17 20 -36q7 17 17 31l193 271h215l-337 -441v-265h-177v265z" />
<glyph unicode="Z" horiz-adv-x="812" d="M74 580v126h691v-126l-488 -451h488v-129h-726v129l487 451h-452z" />
<glyph unicode="[" horiz-adv-x="375" d="M97 -151v904h246v-89h-110v-727h110v-88h-246z" />
<glyph unicode="\" horiz-adv-x="500" d="M479 0h-142l-315 706h143z" />
<glyph unicode="]" horiz-adv-x="375" d="M32 664v88h246v-904h-246v89h110v727h-110z" />
<glyph unicode="^" horiz-adv-x="729" d="M414 706l187 -382h-118l-116 245l-122 -245h-117l195 382h91z" />
<glyph unicode="_" horiz-adv-x="500" d="M510 -75v-50h-520v50h520z" />
<glyph unicode="`" horiz-adv-x="375" d="M199 571l-124 125h170l54 -125h-100z" />
<glyph unicode="a" d="M676 300v-238q3 -35 23 -62h-179q-8 23 -10 54q-37 -22 -59.5 -33t-68 -22.5t-98.5 -11.5q-70 0 -118 14q-56 16 -90.5 56t-34.5 98q0 33 10 59t23.5 43t40.5 29t48 18t60.5 9.5t62.5 4l68 1.5h156q0 18 -0.5 26.5t-7.5 23.5t-21 22t-42.5 13t-70.5 6q-119 0 -134 -46 h-167q4 22 8.5 36t21.5 38.5t44 41.5q71 44 232 44q50 0 90.5 -4.5t70.5 -11t53 -19.5t37.5 -23.5t25 -29t15.5 -31t7.5 -35t3 -34.5t0.5 -36zM510 234q-187 0 -233 -10q-62 -16 -62 -63q0 -65 110 -65q53 0 99.5 20.5t69.5 55.5q14 20 16 62z" />
<glyph unicode="b" d="M74 0v706h164v-260q87 77 211 77q127 0 194.5 -76t67.5 -185q0 -114 -74.5 -197t-203.5 -83q-47 0 -90.5 14t-61 24.5t-43.5 29.5v-50h-164zM383 408q-61 -3 -104.5 -42.5t-43.5 -112.5q0 -66 32 -98q45 -54 126 -54q61 0 104 39t43 114q0 81 -49 122q-43 35 -108 32z " />
<glyph unicode="c" horiz-adv-x="688" d="M521 180l168 -23q-25 -49 -65 -85t-85.5 -55.5t-89 -28.5t-85.5 -9q-86 0 -159 30.5t-120 94.5t-47 150q0 73 31.5 128t83 85.5t107 45t112.5 14.5q134 0 225 -64q52 -37 82 -98l-172 -20q-45 58 -135 58q-72 0 -119.5 -42t-47.5 -106q0 -57 42 -103.5t123 -46.5 q60 0 105 27q30 18 46 48z" />
<glyph unicode="d" d="M514 453v254h162v-707h-162v61l-32 -29q-70 -50 -168 -50q-120 0 -197.5 74t-77.5 194q0 119 77.5 195.5t196.5 76.5q60 0 117 -21q40 -14 84 -48zM348 405q-65 -4 -102 -46.5t-37 -103.5q0 -25 6.5 -50t22 -51.5t47 -42.5t75.5 -16q40 0 73 13t58.5 51t25.5 96 q0 84 -56 121q-48 32 -113 29z" />
<glyph unicode="e" d="M708 225h-502q11 -45 31 -68q48 -58 145 -58q106 0 161 70l171 -17q-104 -172 -340 -172q-156 0 -242 71q-48 38 -71.5 93.5t-23.5 113.5q0 89 48 151t122.5 89.5t168.5 27.5q172 0 263 -97q24 -25 39 -52.5t20.5 -58t7 -48t2.5 -45.5zM211 316h315q-7 46 -45 68 q-45 26 -108 26q-69 0 -113 -29q-30 -20 -49 -65z" />
<glyph unicode="f" horiz-adv-x="375" d="M14 506h81q0 66 2.5 91t14.5 49q38 73 156 73q46 0 106 -15v-107q-22 8 -44 8q-25 0 -39 -7q-21 -11 -26 -29t-5 -63h114v-98h-114v-408h-165v408h-81v98z" />
<glyph unicode="g" d="M518 51v53q-24 -22 -41 -34.5t-65.5 -30t-104.5 -17.5q-117 0 -189 61q-80 67 -80 182t75 186.5t200 71.5q53 0 98 -15t64 -27.5t43 -33.5v60h158v-428q0 -37 -1.5 -58t-8 -54.5t-23.5 -60t-45 -47.5q-81 -63 -247 -63q-66 0 -117 11.5t-82.5 29t-54.5 44t-33.5 49 t-19.5 51.5h178q14 -41 49.5 -55t91.5 -14q66 0 105 24q17 10 27.5 23t15 30.5t5.5 29t2 32.5zM356 406q-66 -1 -106.5 -37t-40.5 -95q0 -56 38 -96.5t111 -40.5q65 0 112 35t47 102q0 64 -47.5 98.5t-113.5 33.5z" />
<glyph unicode="h" horiz-adv-x="771" d="M74 0v706h165v-264q19 19 37 31q69 46 175 46q137 0 202 -70q29 -31 36.5 -63.5t7.5 -78.5v-307h-166v275q0 61 -22 87q-34 43 -118 43q-74 0 -119 -35q-21 -18 -27 -35t-6 -44v-291h-165z" />
<glyph unicode="i" horiz-adv-x="313" d="M74 682h164v-112h-164v112zM74 506h164v-506h-164v506z" />
<glyph unicode="j" horiz-adv-x="313" d="M73 571v111h165v-111h-165zM73 -15v521h165v-502q0 -37 -1.5 -59.5t-14.5 -55t-38 -50.5q-29 -21 -66.5 -26t-117.5 -5v117q41 2 56.5 13t16.5 47z" />
<glyph unicode="k" horiz-adv-x="708" d="M73 0v706h165v-403l233 203h214l-236 -197l261 -309h-209l-170 215l-93 -80v-135h-165z" />
<glyph unicode="l" horiz-adv-x="313" d="M73 0v706h164v-706h-164z" />
<glyph unicode="m" horiz-adv-x="1146" d="M73 0v506h156v-78q25 34 45 49q64 47 167 47q87 0 142 -34q30 -20 56 -62q26 29 29 32q74 64 195 64q73 0 126 -27q28 -15 46 -34t24.5 -44t8 -41t1.5 -43v-334h-165v306q0 17 -1 27t-7 27.5t-17 27t-33.5 17.5t-53.5 8q-53 0 -88 -21q-30 -18 -40 -48.5t-10 -79.5v-265 h-166v290q0 37 -5 54q-19 65 -101 65q-66 0 -103 -26q-20 -14 -29.5 -35.5t-10.5 -34t-1 -38.5v-275h-165z" />
<glyph unicode="n" horiz-adv-x="771" d="M73 0v506h163v-72q84 87 223 87q128 0 191 -72q20 -23 30.5 -56t12 -53.5t2.5 -59.5v-281l-165 1v259q0 83 -40 117q-35 29 -100 29q-61 0 -103 -24q-51 -30 -51 -108v-273h-163z" />
<glyph unicode="o" horiz-adv-x="771" d="M391 529q160 -1 250 -77.5t90 -190.5q0 -133 -98.5 -207.5t-247.5 -74.5q-156 0 -252 74.5t-96 199.5t100 201t254 75zM376 408q-85 -4 -126.5 -48.5t-41.5 -108.5q0 -13 2 -27t12.5 -37.5t28 -41t53 -31t82.5 -13.5q93 0 134 47t41 110q0 69 -50.5 111.5t-134.5 38.5z " />
<glyph unicode="p" d="M237 506v-58q83 70 195 70q52 0 100 -15.5t89 -46.5t65.5 -84t24.5 -122q0 -126 -78 -195t-195 -69q-124 0 -201 74v-252h-165v698h165zM386 402q-72 0 -110 -44.5t-38 -106.5q0 -74 45 -112.5t111 -38.5q73 0 111 43.5t38 108.5q0 23 -6 45.5t-21.5 48t-49 41 t-80.5 15.5z" />
<glyph unicode="q" horiz-adv-x="729" d="M512 -192v254q-88 -75 -207 -75q-117 0 -192 72t-75 195q0 68 24 121t64.5 84t88.5 46.5t100 15.5q117 0 197 -70v55h163v-698h-163zM355 413q-83 -3 -116 -49.5t-33 -109.5q0 -42 14.5 -72.5t38.5 -46.5t49.5 -23.5t51.5 -7.5q63 0 110 35.5t47 115.5q0 155 -162 158z " />
<glyph unicode="r" horiz-adv-x="458" d="M239 506v-87q13 20 24 33t35 31.5t62.5 28.5t90.5 11v-149q-28 2 -43 2q-69 0 -110 -22q-35 -19 -47 -45.5t-12 -64.5v-244h-166v506h166z" />
<glyph unicode="s" horiz-adv-x="708" d="M45 159l177 13q22 -78 150 -78q56 0 87 11q37 14 37 41q0 17 -15 27t-35.5 14.5t-65.5 10.5l-60 6l-60 6q-187 21 -187 145q0 87 80.5 131.5t214.5 44.5q146 0 227 -58q51 -37 70 -103l-171 -11q-26 62 -136 62q-52 0 -83.5 -13t-31.5 -37q0 -27 43 -36q27 -7 189 -23 q82 -9 115 -25q37 -17 57 -49.5t20 -73.5q0 -68 -49 -112q-76 -70 -251 -70q-84 0 -144.5 14.5t-96 40.5t-53.5 55t-28 67z" />
<glyph unicode="t" horiz-adv-x="375" d="M88 506v135h164v-135h113v-98h-113v-229q0 -36 14 -48t50 -12q24 0 50 3v-118q-80 -8 -120 -8q-62 0 -98 18q-21 11 -34 26t-18 34t-6.5 31.5t-1.5 31.5v271h-82v98h82z" />
<glyph unicode="u" horiz-adv-x="771" d="M73 198v309h165v-266q0 -24 1 -37t9 -32.5t23 -33.5q35 -34 111 -34q86 0 123 40q27 28 29 110v253h163v-507h-163v72q-25 -24 -43.5 -37.5t-70.5 -30t-118 -16.5q-102 0 -165 48q-41 32 -52.5 68.5t-11.5 93.5z" />
<glyph unicode="v" horiz-adv-x="646" d="M1 506h183l137 -363l142 363h180l-229 -506h-186z" />
<glyph unicode="w" horiz-adv-x="1042" d="M214 0l-215 506h178l103 -271q13 -37 22 -79q9 45 21 76l103 274h179l102 -268q13 -35 23 -82q8 43 24 85l102 265h180l-219 -506h-174l-109 293q-10 31 -19 68q-7 -31 -18 -61l-108 -300h-175z" />
<glyph unicode="x" d="M266 273l-233 233h223l121 -149l120 149h220l-233 -233l266 -273h-220l-153 183l-157 -183h-222z" />
<glyph unicode="y" horiz-adv-x="625" d="M228 0l-226 506h176l120 -315q13 -37 20 -77q4 41 19 82l115 310h174l-238 -539q-46 -99 -85.5 -130t-135.5 -31q-19 0 -122 5v120q57 -5 83 -5q36 0 54 9q11 5 19 16.5t27 48.5z" />
<glyph unicode="z" horiz-adv-x="667" d="M62 395v111h561v-87l-327 -304h327v-115h-581v83l340 312h-320z" />
<glyph unicode="{" horiz-adv-x="354" d="M55 271v56q31 7 47 26.5t18.5 37.5t2.5 49v110q1 63 6 96t22 57q27 39 83 48q45 7 115 7v-59q-35 -8 -52 -21q-20 -14 -30 -35.5t-11.5 -34.5t-2.5 -38v-45q0 -43 -0.5 -61t-2 -46.5t-4.5 -40t-8.5 -28t-14.5 -23.5t-21 -14t-29 -12q20 -7 33.5 -14.5t22.5 -23 t13.5 -27.5t7 -42.5t3 -51.5t0.5 -70v-42q1 -25 2.5 -38t11.5 -34.5t30 -35.5q17 -13 52 -21v-60q-70 0 -121 8q-51 10 -77 48q-17 24 -22 57t-6 96v109q0 31 -2.5 49t-18.5 37.5t-47 26.5z" />
<glyph unicode="|" horiz-adv-x="229" d="M145 750v-1000h-60v1000h60z" />
<glyph unicode="}" horiz-adv-x="354" d="M299 327v-56q-31 -7 -47 -26.5t-18.5 -37.5t-2.5 -49v-109q-1 -63 -6 -96t-22 -57q-26 -38 -77 -48q-51 -8 -121 -8v60q35 8 52 21q20 14 30 35.5t11.5 34.5t2.5 38v42q0 49 0.5 70t3 51.5t7 42.5t13.5 27.5t22.5 23t33.5 14.5q-17 5 -29 12t-21 14t-14.5 23.5t-8.5 28 t-4.5 40t-2 46.5t-0.5 61v45q-1 25 -2.5 38t-11.5 34.5t-30 35.5q-17 13 -52 21v59q70 0 115 -7q56 -9 83 -48q17 -24 22 -57t6 -96v-110q0 -31 2.5 -49t18.5 -37.5t47 -26.5z" />
<glyph unicode="~" horiz-adv-x="729" d="M570 377l46 -89q-21 -22 -34.5 -34.5t-46.5 -29.5t-66 -17q-36 0 -103 32q-74 37 -106 37q-28 0 -45.5 -13t-53.5 -55l-48 87q61 89 145 89q38 0 107 -32q53 -24 71 -30.5t36 -6.5q46 0 98 62z" />
<glyph unicode="&#xa1;" horiz-adv-x="333" d="M62 582v124h163v-124h-163zM62 280l25 220h113l25 -220v-280h-163v280z" />
<glyph unicode="&#xa2;" horiz-adv-x="708" d="M324 522v111h80v-110q38 -3 62.5 -7.5t67 -18.5t78 -44.5t63.5 -76.5l-166 -34q-18 24 -40.5 38t-64.5 21v-293q56 11 79 28t39 45l164 -34q-30 -47 -59 -73q-37 -34 -84 -55t-72 -26t-67 -10v-129h-81v129q-136 12 -211 87t-75 182q0 108 72.5 182.5t214.5 87.5z M323 111v287q-41 -13 -64 -31q-55 -43 -55 -113q0 -53 32 -91q30 -37 87 -52z" />
<glyph unicode="&#xa3;" horiz-adv-x="792" d="M63 388h117q-55 76 -55 148q0 67 48 115q73 72 257 72t251 -96q32 -45 45 -132l-174 -10q2 37 -4 59q-22 74 -116 74q-64 0 -96.5 -25t-32.5 -64q0 -28 12 -53t52 -88h165v-62h-124q35 -68 35 -117q0 -30 -14 -70q57 -21 91 -21q24 0 38 7q32 18 32 75q0 15 -1 28h167 q-3 -38 -5.5 -58t-13 -53.5t-28.5 -57.5q-51 -69 -136 -69q-40 0 -81.5 16.5t-112.5 53.5q-9 -10 -20 -17q-67 -51 -165 -51q-81 0 -121.5 38t-40.5 88t34 81.5t92 31.5q57 0 139 -39q-5 35 -16.5 60t-49.5 74h-168v62zM280 111q-86 41 -116 41q-17 0 -27 -10t-10 -22 q0 -9 4 -18t20 -19t43 -10q48 0 86 38z" />
<glyph unicode="&#xa4;" horiz-adv-x="667" d="M642 569l-79 -77q47 -73 47 -153q0 -83 -48 -154l79 -79l-78 -77l-78 79q-72 -46 -152 -46q-81 0 -154 47l-78 -78l-77 77l79 78q-47 69 -47 153t47 153l-77 77l76 77l77 -77q75 47 154 47q84 0 153 -47l78 77zM508 339q1 78 -52 127.5t-123 49.5q-71 0 -123.5 -48.5 t-52.5 -128.5q0 -78 52.5 -127.5t125.5 -49.5q72 0 122.5 50t50.5 127z" />
<glyph unicode="&#xa5;" horiz-adv-x="854" d="M219 665l209 -276l208 276h215l-207 -255h96v-104h-179l-43 -54h222v-103h-226v-149h-177v149h-224v103h220l-42 54h-178v104h95l-207 255h218z" />
<glyph unicode="&#xa6;" horiz-adv-x="229" d="M63 -175v350h103v-350h-103zM166 675v-350h-103v350h103z" />
<glyph unicode="&#xa7;" d="M42 27l149 31q15 -41 44 -63q54 -45 148 -45q70 0 108.5 19.5t38.5 52.5q0 16 -7.5 27.5t-26 20t-33 13t-45.5 12.5l-71.5 16l-82.5 19q-36 8 -58 14.5t-56 20.5t-54 30t-35 42t-15 58q0 60 43 105q23 24 69 44q-19 14 -29 24t-22.5 35t-12.5 55q0 68 54 112 q66 55 224 55q132 0 209.5 -35t107.5 -118l-134 -28q-8 20 -26 36q-48 42 -158 42q-126 0 -126 -52q0 -25 34 -40q25 -11 155 -43l57 -13.5l50.5 -12.5t47.5 -15l38.5 -17.5t33.5 -22t23 -26.5t16.5 -34t4.5 -41q0 -35 -14 -64.5t-28 -43.5t-43 -40q66 -48 66 -118 q0 -90 -82.5 -146t-224.5 -56q-120 0 -209 47q-95 51 -128 143zM243 406q-48 -33 -48 -74q0 -33 31 -51.5t129 -41.5q93 -20 113 -25q37 -9 69 -19q33 41 33 77q0 39 -31.5 54.5t-123.5 35.5q-110 22 -172 44z" />
<glyph unicode="&#xa8;" horiz-adv-x="375" d="M11 572v123h147v-123h-147zM216 572v123h148v-123h-148z" />
<glyph unicode="&#xa9;" horiz-adv-x="833" d="M773 352q-1 -149 -103.5 -252t-253.5 -103q-143 0 -249 101t-106 255q0 152 105 254t251 102q153 0 255 -104.5t101 -252.5zM741 352q1 135 -92 230t-231 95q-136 0 -230.5 -95t-94.5 -229q0 -136 95 -230t229 -94q136 0 229.5 94t94.5 229zM546 264l71 -65 q-77 -87 -193 -87q-109 0 -175.5 68.5t-66.5 172.5q0 105 67.5 175t175.5 70q111 0 192 -87l-71 -68q-58 58 -122 58t-103 -42t-39 -104q0 -65 40.5 -105.5t103.5 -40.5q68 0 120 55z" />
<glyph unicode="&#xaa;" horiz-adv-x="479" d="M151 602h-113q6 50 39 74t89 31q38 6 76 6q70 0 116 -14q82 -26 82 -115v-160q1 -32 19 -57h-123q-4 15 -8 35q-62 -46 -148 -46q-78 0 -121 34q-37 29 -37 82q0 65 63 91q29 10 69.5 12.5t172.5 4.5q0 14 -2 21t-10.5 16t-28 12.5t-52.5 3.5q-38 0 -58 -8q-8 -3 -13 -7 t-7 -6.5t-5 -9.5zM327 519q-116 0 -150 -9q-36 -9 -36 -37q0 -15 14.5 -27t51.5 -12q46 0 83 22q37 24 37 63z" />
<glyph unicode="&#xab;" horiz-adv-x="562" d="M42 306l224 169v-102l-124 -120l124 -115v-103l-224 166v105zM288 306l224 169v-102l-124 -120l124 -114v-103l-224 166v104z" />
<glyph unicode="&#xac;" horiz-adv-x="667" d="M564 0v242h-564v103h564h103v-345h-103z" />
<glyph unicode="&#xad;" horiz-adv-x="396" d="M70 217v124h283v-124h-283z" />
<glyph unicode="&#xae;" horiz-adv-x="833" d="M258 583h155q79 -2 106 -11q38 -13 57.5 -43.5t19.5 -64.5q0 -75 -86 -107q17 -9 25.5 -15.5t17.5 -25t14 -49.5q16 -99 37 -138h-109q-14 30 -24 99q-4 27 -6.5 40t-8.5 26.5t-11.5 18t-20 8.5t-29 4.5t-42.5 0.5v-197h-95v454zM353 510v-108h57q16 0 23.5 0.5t23 3 t23.5 8t14.5 17t6.5 27.5q0 18 -7.5 29.5t-21.5 16t-23.5 5.5t-24.5 1h-71zM773 351q-1 -148 -104 -251t-253 -103q-143 0 -249 101t-106 255q0 152 104.5 254t250.5 102q153 0 255.5 -105t101.5 -253zM741 352q1 134 -92.5 229.5t-230.5 95.5q-136 0 -230.5 -95t-94.5 -229 q0 -136 94.5 -230t229.5 -94q137 0 230 93.5t94 229.5z" />
<glyph unicode="&#xaf;" horiz-adv-x="375" d="M364 572h-353v93h353v-93z" />
<glyph unicode="&#xb0;" horiz-adv-x="354" d="M177 755q71 0 121.5 -50.5t50.5 -121.5t-50.5 -121.5t-121.5 -50.5t-121.5 50.5t-50.5 121.5t50.5 121.5t121.5 50.5zM177 654q-30 0 -51 -21t-21 -51q0 -29 21 -50t51 -21q29 0 50 21t21 50q0 30 -21 51t-50 21z" />
<glyph unicode="&#xb1;" horiz-adv-x="667" d="M386 374v-226h-103v226h-241v103h241v225h103v-225h239v-103h-239zM625 103v-103h-583v103h583z" />
<glyph unicode="&#xb2;" horiz-adv-x="500" d="M157 498h-117q3 28 6 43.5t15 40.5t32 38.5t58 24.5t91 11q95 0 143 -25q70 -36 70 -114q0 -36 -14.5 -63t-43.5 -45.5t-53 -29t-63 -23.5q-66 -21 -86 -30.5t-34 -29.5h283v-90h-418q0 37 4 60t18 55t47.5 57.5t86.5 46.5l87 30q61 20 61 60q0 52 -83 52q-29 0 -47.5 -6 t-27 -18.5t-11 -21t-4.5 -23.5z" />
<glyph unicode="&#xb3;" horiz-adv-x="500" d="M146 514l-122 5q9 42 23 63q48 75 194 75q105 0 156 -27q59 -32 59 -97q0 -32 -16 -53q-18 -26 -54 -40q-2 -1 -6.5 -2.5t-6.5 -2.5q12 -2 18 -4q75 -23 75 -92q0 -62 -61.5 -103t-167.5 -41q-117 0 -179 56q-17 15 -27 34.5t-13.5 32.5t-6.5 35l123 6q3 -22 9 -35.5 t28.5 -25t62.5 -11.5q108 0 108 56q0 17 -8.5 28t-24.5 15t-27 5t-29 1h-80v79h71q17 0 27.5 1t26.5 5t24 14t8 27q0 50 -85 50q-39 0 -61.5 -9.5t-28 -18.5t-9.5 -26z" />
<glyph unicode="&#xb4;" horiz-adv-x="375" d="M76 572l52 124h171l-122 -124h-101z" />
<glyph unicode="&#xb6;" horiz-adv-x="667" d="M309 706h240v-66h-35v-807h-71v807h-131v-807h-71v473q-52 10 -86 36q-70 55 -70 156q0 97 64 156q26 23 59.5 35.5t52 14t48.5 2.5z" />
<glyph unicode="&#xb7;" horiz-adv-x="292" d="M64 352h164v-143h-164v143z" />
<glyph unicode="&#xb8;" horiz-adv-x="375" d="M73 -101l84 106l51 -4l-51 -75q20 2 31 2q55 0 84.5 -23.5t29.5 -59.5q0 -41 -39 -69q-36 -23 -99 -23q-32 0 -91 9l1 50q1 0 18.5 -1.5t25.5 -1.5q66 0 66 38q0 33 -48 33q-22 0 -53 -9z" />
<glyph unicode="&#xb9;" horiz-adv-x="500" d="M225 206v323q-57 -28 -124 -33v85q43 7 72.5 19t40 21.5t24.5 26.5h105v-442h-118z" />
<glyph unicode="&#xba;" horiz-adv-x="500" d="M235 714q101 5 172.5 -44.5t71.5 -135.5q0 -93 -68 -141t-160 -48q-97 0 -163.5 49.5t-66.5 131.5q0 45 17 80t41 54t56 32t55 17t45 5zM255 630q-51 1 -84 -24.5t-33 -76.5q0 -52 35.5 -75.5t78.5 -23.5q47 0 79 25.5t32 74.5q0 43 -28 71t-80 29z" />
<glyph unicode="&#xbb;" horiz-adv-x="562" d="M293 372v104l225 -167v-104l-225 -169v102l124 119zM48 371v104l225 -167v-103l-225 -170v103l123 119z" />
<glyph unicode="&#xbc;" horiz-adv-x="1125" d="M321 19l409 651l71 -45l-410 -651zM225 206v323q-57 -28 -124 -34v85q43 7 72.5 19.5t39.5 21.5t25 26h105v-441h-118zM901 440h121v-267h71v-84h-71v-89h-118v89h-268v80zM905 173v157l-143 -157h143z" />
<glyph unicode="&#xbd;" horiz-adv-x="1125" d="M320 20l410 651l72 -45l-411 -652zM224 206v323q-57 -28 -124 -34v86q43 7 72.5 19t40 21.5t24.5 26.5h105v-442h-118zM782 292h-118q3 28 6 43.5t15.5 40.5t32 38.5t57.5 24.5t91 11q96 0 144 -25q70 -36 70 -114q0 -36 -14.5 -63t-43.5 -45.5t-53 -29t-63 -23.5 q-66 -21 -86.5 -31t-34.5 -29h284v-90h-418q0 36 4 60t18 55.5t47.5 57t86.5 46.5l87 30q61 20 61 60q0 52 -84 52q-29 0 -47.5 -6t-26.5 -18.5t-10.5 -21t-4.5 -23.5z" />
<glyph unicode="&#xbe;" horiz-adv-x="1125" d="M321 19l409 651l71 -45l-410 -651zM901 441h121v-268h71v-84h-71v-89h-118v89h-268v80zM905 173v157l-143 -157h143zM146 514l-122 5q9 42 23 63q48 75 194 75q105 0 156 -27q59 -32 59 -97q0 -32 -16 -53q-18 -26 -54 -40q-2 -1 -6.5 -2.5t-6.5 -2.5q12 -2 18 -4 q75 -23 75 -92q0 -62 -61.5 -103t-167.5 -41q-117 0 -179 56q-17 15 -27 34.5t-13.5 32.5t-6.5 35l123 6q3 -22 9 -35.5t28.5 -25t62.5 -11.5q108 0 108 56q0 17 -8.5 28t-24.5 15t-27 5t-29 1h-80v79h71q17 0 27.5 1t26.5 5t24 14t8 27q0 50 -85 50q-39 0 -61.5 -9.5 t-28 -18.5t-9.5 -26z" />
<glyph unicode="&#xbf;" horiz-adv-x="688" d="M246 583v123h165v-123h-165zM463 223l160 -7q-12 -104 -56 -153q-72 -78 -245 -78q-162 0 -239 71q-58 53 -58 130q0 60 37.5 104.5t123.5 91.5q43 23 51.5 41.5t8.5 76.5h165v-52q0 -57 -22 -81q-13 -14 -97 -69q-55 -37 -76.5 -59t-21.5 -53q0 -36 32 -61 q33 -25 106 -25q18 0 29.5 1t32 7.5t33.5 18.5t23.5 36.5t12.5 59.5z" />
<glyph unicode="&#xc0;" horiz-adv-x="875" d="M1 0l341 706h191l341 -706h-198l-60 133h-362l-60 -133h-193zM559 258l-105 231q-7 12 -12 28q-5 14 -6 28q-3 -9 -7 -25q-2 -4 -5.5 -13l-5.5 -14l-107 -235h248zM275 885h170l54 -125h-99z" />
<glyph unicode="&#xc1;" horiz-adv-x="875" d="M1 0l341 706h191l341 -706h-198l-60 133h-362l-60 -133h-193zM559 258l-105 231q-7 12 -12 28q-5 14 -6 28q-3 -9 -7 -25q-2 -4 -5.5 -13l-5.5 -14l-107 -235h248zM368 761l52 124h170l-121 -124h-101z" />
<glyph unicode="&#xc2;" horiz-adv-x="875" d="M1 0l341 706h191l341 -706h-198l-60 133h-362l-60 -133h-193zM559 258l-105 231q-7 12 -12 28q-5 14 -6 28q-3 -9 -7 -25q-2 -4 -5.5 -13l-5.5 -14l-107 -235h248zM234 761l96 124h204l95 -124h-114l-83 78l-84 -78h-114z" />
<glyph unicode="&#xc3;" horiz-adv-x="875" d="M1 0l341 706h191l341 -706h-198l-60 133h-362l-60 -133h-193zM559 258l-105 231q-7 12 -12 28q-5 14 -6 28q-3 -9 -7 -25q-2 -4 -5.5 -13l-5.5 -14l-107 -235h248zM304 768l-62 1q2 17 3.5 27.5t8.5 29.5t18 30.5t31.5 20.5t48.5 9q34 0 110 -23q57 -16 76 -16 q42 0 49 38h61q-2 -17 -3.5 -28.5t-9 -31t-18.5 -31.5t-32 -21t-49 -9t-58 8q-17 4 -51 14t-52 14q-1 0 -11 1.5t-15 1.5q-37 0 -45 -35z" />
<glyph unicode="&#xc4;" horiz-adv-x="875" d="M1 0l341 706h191l341 -706h-198l-60 133h-362l-60 -133h-193zM559 258l-105 231q-7 12 -12 28q-5 14 -6 28q-3 -9 -7 -25q-2 -4 -5.5 -13l-5.5 -14l-107 -235h248zM208 755v125h164v-125h-164zM512 755v125h165v-125h-165z" />
<glyph unicode="&#xc5;" horiz-adv-x="875" d="M1 0l341 706h191l341 -706h-198l-60 133h-362l-60 -133h-193zM559 258l-105 231q-7 12 -12 28q-5 14 -6 28q-3 -9 -7 -25q-2 -4 -5.5 -13l-5.5 -14l-107 -235h248zM437 928q56 1 95 -28t39 -76q0 -41 -33 -72t-95 -31q-56 0 -95 28.5t-39 75.5q0 46 37.5 74t90.5 29z M438 874q-24 -1 -38 -15t-14 -35t14.5 -35t38.5 -14q25 0 39.5 14t14.5 35q0 23 -15 37t-40 13z" />
<glyph unicode="&#xc6;" horiz-adv-x="1104" d="M2 0l399 706h647v-124h-356v-164h334v-123h-334v-171h369v-124h-538v170h-239l-92 -170h-190zM523 294v322l-172 -322h172z" />
<glyph unicode="&#xc7;" horiz-adv-x="896" d="M704 237l186 2q-12 -35 -19 -53.5t-26 -46t-47 -52.5q-113 -103 -301 -111l-34 -50q20 2 28 2q14 0 30 -2.5t37.5 -10t35.5 -26t14 -44.5q0 -46 -40 -69.5t-97 -23.5q-22 0 -92 9l1 51q30 -4 45 -4q65 0 65 38q0 33 -47 33q-18 0 -54 -8l-11 27l63 78q-188 8 -293 107 t-105 270q0 97 36 171t98 117.5t138 65t162 21.5q164 0 278 -74q36 -23 63.5 -52.5t38.5 -47.5t25 -46l-194 -24l-16.5 24t-26.5 28.5t-40.5 31t-55 21t-73.5 9.5q-115 0 -182.5 -70.5t-67.5 -175.5q0 -112 75.5 -179.5t180.5 -67.5q57 0 105 19q33 12 58 34.5t35 37.5 t24 41z" />
<glyph unicode="&#xc8;" horiz-adv-x="792" d="M77 0v706h658v-127h-481v-159h465v-125h-465v-169h501v-126h-678zM249 885h170l54 -125h-99z" />
<glyph unicode="&#xc9;" horiz-adv-x="792" d="M77 0v706h658v-127h-481v-159h465v-125h-465v-169h501v-126h-678zM337 761l52 124h170l-121 -124h-101z" />
<glyph unicode="&#xca;" horiz-adv-x="792" d="M77 0v706h658v-127h-481v-159h465v-125h-465v-169h501v-126h-678zM208 761l96 124h204l95 -124h-114l-83 78l-84 -78h-114z" />
<glyph unicode="&#xcb;" horiz-adv-x="792" d="M77 0v706h658v-127h-481v-159h465v-125h-465v-169h501v-126h-678zM171 757v125h164v-125h-164zM475 757v125h165v-125h-165z" />
<glyph unicode="&#xcc;" horiz-adv-x="333" d="M78 0v706h177v-706h-177zM15 885h170l54 -125h-99z" />
<glyph unicode="&#xcd;" horiz-adv-x="333" d="M78 0v706h177v-706h-177zM87 761l52 124h170l-121 -124h-101z" />
<glyph unicode="&#xce;" horiz-adv-x="333" d="M78 0v706h177v-706h-177zM-36 761l96 124h204l95 -124h-114l-83 78l-84 -78h-114z" />
<glyph unicode="&#xcf;" horiz-adv-x="333" d="M78 0v706h177v-706h-177zM-68 757v125h164v-125h-164zM236 757v125h165v-125h-165z" />
<glyph unicode="&#xd0;" horiz-adv-x="896" d="M77 421v285h386q65 -2 78 -4q149 -14 228.5 -108.5t79.5 -236.5q0 -134 -69 -226q-28 -37 -64 -63t-66 -39t-73.5 -19.5t-67.5 -8t-68 -1.5h-364v306h-78v115h78zM457 581h-204v-160h186v-115h-186v-181h195q32 1 50 2.5t45.5 7t48.5 20.5t38 39q43 59 43 166 q0 90 -35 146q-21 34 -56 51.5t-59 20t-66 3.5z" />
<glyph unicode="&#xd1;" horiz-adv-x="938" d="M77 0v706h176l346 -393l94 -114q-6 63 -7 146v361h169v-706h-175l-350 398l-91 111q5 -51 6 -120v-389h-168zM336 768l-62 1q2 17 3.5 27.5t8.5 29.5t18 30.5t31.5 20.5t48.5 9q34 0 110 -23q57 -16 76 -16q42 0 49 38h61q-2 -17 -3.5 -28.5t-9 -31t-18.5 -31.5t-32 -21 t-49 -9t-58 8q-17 4 -51 14t-52 14q-1 0 -11 1.5t-15 1.5q-37 0 -45 -35z" />
<glyph unicode="&#xd2;" horiz-adv-x="958" d="M450 728q114 5 218.5 -28.5t166.5 -108.5q76 -92 76 -231q0 -174 -111.5 -278.5t-319.5 -104.5q-209 0 -322.5 102.5t-113.5 272.5q0 176 112 272t294 104zM470 601q-46 -2 -88.5 -18t-77.5 -45.5t-56.5 -78.5t-21.5 -111q0 -89 45 -148q69 -97 206 -97q119 0 186 70.5 t67 177.5q0 116 -75.5 185t-184.5 65zM317 885h170l54 -125h-99z" />
<glyph unicode="&#xd3;" horiz-adv-x="958" d="M450 728q114 5 218.5 -28.5t166.5 -108.5q76 -92 76 -231q0 -174 -111.5 -278.5t-319.5 -104.5q-209 0 -322.5 102.5t-113.5 272.5q0 176 112 272t294 104zM470 601q-46 -2 -88.5 -18t-77.5 -45.5t-56.5 -78.5t-21.5 -111q0 -89 45 -148q69 -97 206 -97q119 0 186 70.5 t67 177.5q0 116 -75.5 185t-184.5 65zM410 761l52 124h170l-121 -124h-101z" />
<glyph unicode="&#xd4;" horiz-adv-x="958" d="M450 728q114 5 218.5 -28.5t166.5 -108.5q76 -92 76 -231q0 -174 -111.5 -278.5t-319.5 -104.5q-209 0 -322.5 102.5t-113.5 272.5q0 176 112 272t294 104zM470 601q-46 -2 -88.5 -18t-77.5 -45.5t-56.5 -78.5t-21.5 -111q0 -89 45 -148q69 -97 206 -97q119 0 186 70.5 t67 177.5q0 116 -75.5 185t-184.5 65zM276 761l96 124h204l95 -124h-114l-83 78l-84 -78h-114z" />
<glyph unicode="&#xd5;" horiz-adv-x="958" d="M450 728q114 5 218.5 -28.5t166.5 -108.5q76 -92 76 -231q0 -174 -111.5 -278.5t-319.5 -104.5q-209 0 -322.5 102.5t-113.5 272.5q0 176 112 272t294 104zM470 601q-46 -2 -88.5 -18t-77.5 -45.5t-56.5 -78.5t-21.5 -111q0 -89 45 -148q69 -97 206 -97q119 0 186 70.5 t67 177.5q0 116 -75.5 185t-184.5 65zM346 768l-62 1q2 17 3.5 27.5t8.5 29.5t18 30.5t31.5 20.5t48.5 9q34 0 110 -23q57 -16 76 -16q42 0 49 38h61q-2 -17 -3.5 -28.5t-9 -31t-18.5 -31.5t-32 -21t-49 -9t-58 8q-17 4 -51 14t-52 14q-1 0 -11 1.5t-15 1.5q-37 0 -45 -35z " />
<glyph unicode="&#xd6;" horiz-adv-x="958" d="M450 728q114 5 218.5 -28.5t166.5 -108.5q76 -92 76 -231q0 -174 -111.5 -278.5t-319.5 -104.5q-209 0 -322.5 102.5t-113.5 272.5q0 176 112 272t294 104zM470 601q-46 -2 -88.5 -18t-77.5 -45.5t-56.5 -78.5t-21.5 -111q0 -89 45 -148q69 -97 206 -97q119 0 186 70.5 t67 177.5q0 116 -75.5 185t-184.5 65zM248 756v125h164v-125h-164zM552 756v125h165v-125h-165z" />
<glyph unicode="&#xd7;" horiz-adv-x="667" d="M599 100l-74 -74l-192 192l-191 -192l-74 74l191 192l-191 192l74 74l191 -192l192 192l74 -74l-192 -192z" />
<glyph unicode="&#xd8;" horiz-adv-x="958" d="M265 198l379 353q-74 54 -165 54q-105 0 -182.5 -68t-77.5 -189q0 -78 46 -150zM692 499l-377 -350q69 -49 164 -49q124 0 189.5 75t65.5 177q0 79 -42 147zM900 691l-86 -80q18 -20 29 -34.5t29.5 -46.5t28 -75.5t9.5 -94.5q0 -177 -114 -280t-316 -103q-81 0 -150 17 q-69 15 -125 51l-103 -95l-47 53l92 86q-104 104 -104 264q0 183 122 279.5t314 96.5q162 0 277 -72l95 88z" />
<glyph unicode="&#xd9;" horiz-adv-x="917" d="M75 296v410h176v-415q0 -53 16.5 -89.5t63.5 -58.5q57 -27 160 -23q97 9 138 56q32 38 30 114v416h176v-410q-1 -51 -3 -76.5t-16 -65t-42 -70.5q-51 -56 -137.5 -82t-178.5 -26q-80 0 -149 17q-69 16 -122 51q-40 27 -64 57.5t-34 67t-12 61t-2 66.5zM296 885h170 l54 -125h-99z" />
<glyph unicode="&#xda;" horiz-adv-x="917" d="M75 296v410h176v-415q0 -53 16.5 -89.5t63.5 -58.5q57 -27 160 -23q97 9 138 56q32 38 30 114v416h176v-410q-1 -51 -3 -76.5t-16 -65t-42 -70.5q-51 -56 -137.5 -82t-178.5 -26q-80 0 -149 17q-69 16 -122 51q-40 27 -64 57.5t-34 67t-12 61t-2 66.5zM389 761l52 124 h170l-121 -124h-101z" />
<glyph unicode="&#xdb;" horiz-adv-x="917" d="M75 296v410h176v-415q0 -53 16.5 -89.5t63.5 -58.5q57 -27 160 -23q97 9 138 56q32 38 30 114v416h176v-410q-1 -51 -3 -76.5t-16 -65t-42 -70.5q-51 -56 -137.5 -82t-178.5 -26q-80 0 -149 17q-69 16 -122 51q-40 27 -64 57.5t-34 67t-12 61t-2 66.5zM255 761l96 124 h204l95 -124h-114l-83 78l-84 -78h-114z" />
<glyph unicode="&#xdc;" horiz-adv-x="917" d="M75 296v410h176v-415q0 -53 16.5 -89.5t63.5 -58.5q57 -27 160 -23q97 9 138 56q32 38 30 114v416h176v-410q-1 -51 -3 -76.5t-16 -65t-42 -70.5q-51 -56 -137.5 -82t-178.5 -26q-80 0 -149 17q-69 16 -122 51q-40 27 -64 57.5t-34 67t-12 61t-2 66.5zM227 756v125h164 v-125h-164zM531 756v125h165v-125h-165z" />
<glyph unicode="&#xdd;" horiz-adv-x="854" d="M337 265l-336 441h218l187 -266q13 -17 20 -36q7 17 17 31l193 271h215l-337 -441v-265h-177v265zM358 761l52 124h170l-121 -124h-101z" />
<glyph unicode="&#xde;" horiz-adv-x="792" d="M76 0v706h174v-105h287q129 0 188 -64q54 -59 54 -158q0 -89 -48 -145q-25 -29 -61 -46t-61.5 -21t-69.5 -7h-289v-160h-174zM250 478v-194h211q65 0 88 8q54 19 54 87q0 75 -58 92q-25 7 -84 7h-211z" />
<glyph unicode="&#xdf;" d="M73 0v474q0 42 2 67t14 58.5t35 56.5q70 68 244 68q280 0 280 -174q0 -57 -28 -92q-22 -30 -66 -45q-9 -3 -29 -7q15 -1 40 -5q28 -6 41 -12q106 -41 106 -175q0 -112 -72 -170t-184 -58q-59 0 -145 20v98q69 -16 103 -16q70 0 99.5 39t29.5 96q0 36 -11.5 61.5t-26 38 t-39 19t-38 7.5t-34.5 1q-77 -4 -78 -4v101q0 -1 43 -1q63 0 82 13q38 25 38 73q0 44 -27 68q-31 26 -93 26q-57 0 -88 -23q-21 -15 -27 -35t-6 -56v-512h-165z" />
<glyph unicode="&#xe0;" d="M676 300v-238q3 -35 23 -62h-179q-8 23 -10 54q-37 -22 -59.5 -33t-68 -22.5t-98.5 -11.5q-70 0 -118 14q-56 16 -90.5 56t-34.5 98q0 33 10 59t23.5 43t40.5 29t48 18t60.5 9.5t62.5 4l68 1.5h156q0 18 -0.5 26.5t-7.5 23.5t-21 22t-42.5 13t-70.5 6q-119 0 -134 -46 h-167q4 22 8.5 36t21.5 38.5t44 41.5q71 44 232 44q50 0 90.5 -4.5t70.5 -11t53 -19.5t37.5 -23.5t25 -29t15.5 -31t7.5 -35t3 -34.5t0.5 -36zM510 234q-187 0 -233 -10q-62 -16 -62 -63q0 -65 110 -65q53 0 99.5 20.5t69.5 55.5q14 20 16 62zM349 571l-124 125h170l54 -125 h-100z" />
<glyph unicode="&#xe1;" d="M676 300v-238q3 -35 23 -62h-179q-8 23 -10 54q-37 -22 -59.5 -33t-68 -22.5t-98.5 -11.5q-70 0 -118 14q-56 16 -90.5 56t-34.5 98q0 33 10 59t23.5 43t40.5 29t48 18t60.5 9.5t62.5 4l68 1.5h156q0 18 -0.5 26.5t-7.5 23.5t-21 22t-42.5 13t-70.5 6q-119 0 -134 -46 h-167q4 22 8.5 36t21.5 38.5t44 41.5q71 44 232 44q50 0 90.5 -4.5t70.5 -11t53 -19.5t37.5 -23.5t25 -29t15.5 -31t7.5 -35t3 -34.5t0.5 -36zM510 234q-187 0 -233 -10q-62 -16 -62 -63q0 -65 110 -65q53 0 99.5 20.5t69.5 55.5q14 20 16 62zM309 572l52 124h171l-122 -124 h-101z" />
<glyph unicode="&#xe2;" d="M676 300v-238q3 -35 23 -62h-179q-8 23 -10 54q-37 -22 -59.5 -33t-68 -22.5t-98.5 -11.5q-70 0 -118 14q-56 16 -90.5 56t-34.5 98q0 33 10 59t23.5 43t40.5 29t48 18t60.5 9.5t62.5 4l68 1.5h156q0 18 -0.5 26.5t-7.5 23.5t-21 22t-42.5 13t-70.5 6q-119 0 -134 -46 h-167q4 22 8.5 36t21.5 38.5t44 41.5q71 44 232 44q50 0 90.5 -4.5t70.5 -11t53 -19.5t37.5 -23.5t25 -29t15.5 -31t7.5 -35t3 -34.5t0.5 -36zM510 234q-187 0 -233 -10q-62 -16 -62 -63q0 -65 110 -65q53 0 99.5 20.5t69.5 55.5q14 20 16 62zM175 571l96 124h204l95 -124 h-114l-82 78l-85 -78h-114z" />
<glyph unicode="&#xe3;" d="M676 300v-238q3 -35 23 -62h-179q-8 23 -10 54q-37 -22 -59.5 -33t-68 -22.5t-98.5 -11.5q-70 0 -118 14q-56 16 -90.5 56t-34.5 98q0 33 10 59t23.5 43t40.5 29t48 18t60.5 9.5t62.5 4l68 1.5h156q0 18 -0.5 26.5t-7.5 23.5t-21 22t-42.5 13t-70.5 6q-119 0 -134 -46 h-167q4 22 8.5 36t21.5 38.5t44 41.5q71 44 232 44q50 0 90.5 -4.5t70.5 -11t53 -19.5t37.5 -23.5t25 -29t15.5 -31t7.5 -35t3 -34.5t0.5 -36zM510 234q-187 0 -233 -10q-62 -16 -62 -63q0 -65 110 -65q53 0 99.5 20.5t69.5 55.5q14 20 16 62zM243 579l-62 1q2 17 3.5 27.5 t8.5 29.5t18 30.5t31.5 20.5t48.5 9q34 0 110 -23q53 -17 76 -17q42 0 49 38h61q-2 -17 -3.5 -28.5t-9 -31t-18.5 -31t-32 -21t-49 -9.5q-20 0 -58 8q-16 4 -50 14.5t-53 14.5q-12 3 -26 3q-16 0 -26.5 -7t-13 -12.5t-5.5 -15.5z" />
<glyph unicode="&#xe4;" d="M676 300v-238q3 -35 23 -62h-179q-8 23 -10 54q-37 -22 -59.5 -33t-68 -22.5t-98.5 -11.5q-70 0 -118 14q-56 16 -90.5 56t-34.5 98q0 33 10 59t23.5 43t40.5 29t48 18t60.5 9.5t62.5 4l68 1.5h156q0 18 -0.5 26.5t-7.5 23.5t-21 22t-42.5 13t-70.5 6q-119 0 -134 -46 h-167q4 22 8.5 36t21.5 38.5t44 41.5q71 44 232 44q50 0 90.5 -4.5t70.5 -11t53 -19.5t37.5 -23.5t25 -29t15.5 -31t7.5 -35t3 -34.5t0.5 -36zM510 234q-187 0 -233 -10q-62 -16 -62 -63q0 -65 110 -65q53 0 99.5 20.5t69.5 55.5q14 20 16 62zM200 571v123h147v-123h-147z M405 571v123h148v-123h-148z" />
<glyph unicode="&#xe5;" d="M676 300v-238q3 -35 23 -62h-179q-8 23 -10 54q-37 -22 -59.5 -33t-68 -22.5t-98.5 -11.5q-70 0 -118 14q-56 16 -90.5 56t-34.5 98q0 33 10 59t23.5 43t40.5 29t48 18t60.5 9.5t62.5 4l68 1.5h156q0 18 -0.5 26.5t-7.5 23.5t-21 22t-42.5 13t-70.5 6q-119 0 -134 -46 h-167q4 22 8.5 36t21.5 38.5t44 41.5q71 44 232 44q50 0 90.5 -4.5t70.5 -11t53 -19.5t37.5 -23.5t25 -29t15.5 -31t7.5 -35t3 -34.5t0.5 -36zM510 234q-187 0 -233 -10q-62 -16 -62 -63q0 -65 110 -65q53 0 99.5 20.5t69.5 55.5q14 20 16 62zM373 759q57 1 95.5 -27.5 t38.5 -75.5q0 -41 -33 -72t-95 -31q-56 0 -95 28.5t-39 75.5q0 45 37.5 73t90.5 29zM374 705q-24 -1 -38 -15t-14 -35t14.5 -34.5t38.5 -13.5q25 0 39.5 14t14.5 35q0 22 -15.5 36t-39.5 13z" />
<glyph unicode="&#xe6;" horiz-adv-x="1104" d="M213 362h-149q11 56 30 85q26 38 84 60.5t140 22.5q159 0 223 -76q89 76 223 76q62 0 115 -17.5t75.5 -33.5t38.5 -33q32 -34 48.5 -79t18.5 -70t3 -69h-444q8 -46 30.5 -76.5t51 -41.5t44 -14t28.5 -3q86 0 135 79l155 -17q-26 -58 -61 -92q-85 -83 -232 -83 q-70 0 -138 24.5t-109 71.5q-26 -24 -34 -29q-33 -26 -91.5 -46t-132.5 -20q-26 0 -51.5 3t-58 13.5t-56.5 28t-41 50t-17 75.5q0 33 10 59t24 43t39 29t45.5 18t53.5 10t52 4.5t52 1.5h136q-1 22 -3 33.5t-11.5 25.5t-26.5 24q-33 17 -90 17q-42 0 -67 -10t-31 -19t-11 -25 zM623 316h271q-11 53 -40 75q-38 29 -89 29q-63 0 -104 -38q-23 -22 -38 -66zM450 228h-139q-72 0 -97 -24q-20 -17 -20 -44q0 -31 25 -51q24 -20 72 -20q54 0 93 24q24 14 38.5 36t18.5 37t9 42z" />
<glyph unicode="&#xe7;" horiz-adv-x="688" d="M521 179l168 -23q-12 -23 -19.5 -35.5t-27.5 -33t-49 -41.5q-83 -57 -198 -67l-36 -53q20 2 28 2q14 0 30 -2.5t37.5 -10t35.5 -26t14 -44.5q0 -46 -40 -69.5t-97 -23.5q-22 0 -92 9l1 51q30 -4 45 -4q65 0 65 38q0 33 -47 33q-18 0 -54 -8l-11 27l65 81 q-128 8 -214.5 80.5t-86.5 193.5q0 59 21.5 106.5t55.5 78t79 51t89 29t89 8.5q135 0 225 -64q22 -16 39 -35.5t24.5 -31t18.5 -31.5l-172 -19q-47 57 -135 57q-71 0 -119 -41.5t-48 -108.5q0 -54 41.5 -101t123.5 -47q60 0 105 27q14 8 23.5 17t13 14.5t9.5 16.5z" />
<glyph unicode="&#xe8;" d="M708 225h-502q11 -45 31 -68q48 -58 145 -58q106 0 161 70l171 -17q-104 -172 -340 -172q-156 0 -242 71q-48 38 -71.5 93.5t-23.5 113.5q0 89 48 151t122.5 89.5t168.5 27.5q172 0 263 -97q24 -25 39 -52.5t20.5 -58t7 -48t2.5 -45.5zM211 316h315q-7 46 -45 68 q-45 26 -108 26q-69 0 -113 -29q-30 -20 -49 -65zM339 571l-124 125h170l54 -125h-100z" />
<glyph unicode="&#xe9;" d="M708 225h-502q11 -45 31 -68q48 -58 145 -58q106 0 161 70l171 -17q-104 -172 -340 -172q-156 0 -242 71q-48 38 -71.5 93.5t-23.5 113.5q0 89 48 151t122.5 89.5t168.5 27.5q172 0 263 -97q24 -25 39 -52.5t20.5 -58t7 -48t2.5 -45.5zM211 316h315q-7 46 -45 68 q-45 26 -108 26q-69 0 -113 -29q-30 -20 -49 -65zM309 572l52 124h171l-122 -124h-101z" />
<glyph unicode="&#xea;" d="M708 225h-502q11 -45 31 -68q48 -58 145 -58q106 0 161 70l171 -17q-104 -172 -340 -172q-156 0 -242 71q-48 38 -71.5 93.5t-23.5 113.5q0 89 48 151t122.5 89.5t168.5 27.5q172 0 263 -97q24 -25 39 -52.5t20.5 -58t7 -48t2.5 -45.5zM211 316h315q-7 46 -45 68 q-45 26 -108 26q-69 0 -113 -29q-30 -20 -49 -65zM175 571l96 124h204l95 -124h-114l-82 78l-85 -78h-114z" />
<glyph unicode="&#xeb;" d="M708 225h-502q11 -45 31 -68q48 -58 145 -58q106 0 161 70l171 -17q-104 -172 -340 -172q-156 0 -242 71q-48 38 -71.5 93.5t-23.5 113.5q0 89 48 151t122.5 89.5t168.5 27.5q172 0 263 -97q24 -25 39 -52.5t20.5 -58t7 -48t2.5 -45.5zM211 316h315q-7 46 -45 68 q-45 26 -108 26q-69 0 -113 -29q-30 -20 -49 -65zM198 572v123h147v-123h-147zM403 572v123h148v-123h-148z" />
<glyph unicode="&#xec;" horiz-adv-x="313" d="M74 506h164v-506h-164v506zM119 571l-124 125h170l54 -125h-100z" />
<glyph unicode="&#xed;" horiz-adv-x="313" d="M74 506h164v-506h-164v506zM89 572l52 124h171l-122 -124h-101z" />
<glyph unicode="&#xee;" horiz-adv-x="313" d="M74 506h164v-506h-164v506zM-45 571l96 124h204l95 -124h-114l-82 78l-85 -78h-114z" />
<glyph unicode="&#xef;" horiz-adv-x="313" d="M74 506h164v-506h-164v506zM-22 572v123h147v-123h-147zM183 572v123h148v-123h-148z" />
<glyph unicode="&#xf0;" horiz-adv-x="771" d="M503 489l2 -1l-7 10q-7 9 -14 19t-8 12q-26 32 -55 62l-192 -36l-27 56l164 31q-42 38 -56 47l171 32l53 -47l112 21l27 -56l-89 -17q72 -78 110 -164q38 -89 38 -179q0 -101 -59 -179q-92 -121 -295 -121q-89 0 -158 25.5t-107 67t-57 86.5t-19 91q0 60 22.5 109.5 t57.5 80t79 52t84.5 30t77.5 8.5q85 0 145 -40zM376 408q-77 -4 -122.5 -45t-45.5 -112q0 -64 44 -105q45 -45 134 -45q92 0 133.5 46.5t41.5 110.5q0 69 -50.5 111.5t-134.5 38.5z" />
<glyph unicode="&#xf1;" horiz-adv-x="771" d="M73 0v506h163v-72q84 87 223 87q128 0 191 -72q20 -23 30.5 -56t12 -53.5t2.5 -59.5v-281l-165 1v259q0 83 -40 117q-35 29 -100 29q-61 0 -103 -24q-51 -30 -51 -108v-273h-163zM252 579l-62 1q2 17 3.5 27.5t8.5 29.5t18 30.5t31.5 20.5t48.5 9q34 0 110 -23 q53 -17 76 -17q42 0 49 38h61q-2 -17 -3.5 -28.5t-9 -31t-18.5 -31t-32 -21t-49 -9.5q-20 0 -58 8q-16 4 -50 14.5t-53 14.5q-12 3 -26 3q-16 0 -26.5 -7t-13 -12.5t-5.5 -15.5z" />
<glyph unicode="&#xf2;" horiz-adv-x="771" d="M391 529q160 -1 250 -77.5t90 -190.5q0 -133 -98.5 -207.5t-247.5 -74.5q-156 0 -252 74.5t-96 199.5t100 201t254 75zM376 408q-85 -4 -126.5 -48.5t-41.5 -108.5q0 -13 2 -27t12.5 -37.5t28 -41t53 -31t82.5 -13.5q93 0 134 47t41 110q0 69 -50.5 111.5t-134.5 38.5z M348 571l-124 125h170l54 -125h-100z" />
<glyph unicode="&#xf3;" horiz-adv-x="771" d="M391 529q160 -1 250 -77.5t90 -190.5q0 -133 -98.5 -207.5t-247.5 -74.5q-156 0 -252 74.5t-96 199.5t100 201t254 75zM376 408q-85 -4 -126.5 -48.5t-41.5 -108.5q0 -13 2 -27t12.5 -37.5t28 -41t53 -31t82.5 -13.5q93 0 134 47t41 110q0 69 -50.5 111.5t-134.5 38.5z M318 572l52 124h171l-122 -124h-101z" />
<glyph unicode="&#xf4;" horiz-adv-x="771" d="M391 529q160 -1 250 -77.5t90 -190.5q0 -133 -98.5 -207.5t-247.5 -74.5q-156 0 -252 74.5t-96 199.5t100 201t254 75zM376 408q-85 -4 -126.5 -48.5t-41.5 -108.5q0 -13 2 -27t12.5 -37.5t28 -41t53 -31t82.5 -13.5q93 0 134 47t41 110q0 69 -50.5 111.5t-134.5 38.5z M184 571l96 124h204l95 -124h-114l-82 78l-85 -78h-114z" />
<glyph unicode="&#xf5;" horiz-adv-x="771" d="M391 529q160 -1 250 -77.5t90 -190.5q0 -133 -98.5 -207.5t-247.5 -74.5q-156 0 -252 74.5t-96 199.5t100 201t254 75zM376 408q-85 -4 -126.5 -48.5t-41.5 -108.5q0 -13 2 -27t12.5 -37.5t28 -41t53 -31t82.5 -13.5q93 0 134 47t41 110q0 69 -50.5 111.5t-134.5 38.5z M252 579l-62 1q2 17 3.5 27.5t8.5 29.5t18 30.5t31.5 20.5t48.5 9q34 0 110 -23q53 -17 76 -17q42 0 49 38h61q-2 -17 -3.5 -28.5t-9 -31t-18.5 -31t-32 -21t-49 -9.5q-20 0 -58 8q-16 4 -50 14.5t-53 14.5q-12 3 -26 3q-16 0 -26.5 -7t-13 -12.5t-5.5 -15.5z" />
<glyph unicode="&#xf6;" horiz-adv-x="771" d="M391 529q160 -1 250 -77.5t90 -190.5q0 -133 -98.5 -207.5t-247.5 -74.5q-156 0 -252 74.5t-96 199.5t100 201t254 75zM376 408q-85 -4 -126.5 -48.5t-41.5 -108.5q0 -13 2 -27t12.5 -37.5t28 -41t53 -31t82.5 -13.5q93 0 134 47t41 110q0 69 -50.5 111.5t-134.5 38.5z M210 570v123h147v-123h-147zM415 570v123h148v-123h-148z" />
<glyph unicode="&#xf7;" horiz-adv-x="667" d="M402 127q0 -27 -19 -47t-49 -20q-29 0 -49 19.5t-20 47.5t19.5 48.5t48.5 20.5q30 0 49.5 -20.5t19.5 -48.5zM402 452q0 -26 -19 -46.5t-49 -20.5t-49.5 19.5t-19.5 47.5t19.5 48.5t48.5 20.5q30 0 49.5 -20.5t19.5 -48.5zM666 342v-103h-666v103h666z" />
<glyph unicode="&#xf8;" horiz-adv-x="771" d="M602 477l63 56l38 -44l-54 -46q22 -22 35.5 -37.5t30 -56.5t16.5 -89q0 -131 -94.5 -206t-252.5 -75q-128 0 -217 49l-60 -53l-38 43l52 44q-22 22 -36 39t-30.5 59t-16.5 90q0 101 60 171q93 106 284 106q136 0 220 -50zM230 157l264 228q-50 25 -110 25 q-48 0 -84.5 -12.5t-55.5 -30t-30.5 -41t-14.5 -40t-3 -32.5q0 -51 34 -97zM540 349l-265 -229q49 -26 112 -26q77 0 131.5 40t54.5 118q0 50 -33 97z" />
<glyph unicode="&#xf9;" horiz-adv-x="771" d="M73 198v309h165v-266q0 -24 1 -37t9 -32.5t23 -33.5q35 -34 111 -34q86 0 123 40q27 28 29 110v253h163v-507h-163v72q-25 -24 -43.5 -37.5t-70.5 -30t-118 -16.5q-102 0 -165 48q-41 32 -52.5 68.5t-11.5 93.5zM348 571l-124 125h170l54 -125h-100z" />
<glyph unicode="&#xfa;" horiz-adv-x="771" d="M73 198v309h165v-266q0 -24 1 -37t9 -32.5t23 -33.5q35 -34 111 -34q86 0 123 40q27 28 29 110v253h163v-507h-163v72q-25 -24 -43.5 -37.5t-70.5 -30t-118 -16.5q-102 0 -165 48q-41 32 -52.5 68.5t-11.5 93.5zM318 572l52 124h171l-122 -124h-101z" />
<glyph unicode="&#xfb;" horiz-adv-x="771" d="M73 198v309h165v-266q0 -24 1 -37t9 -32.5t23 -33.5q35 -34 111 -34q86 0 123 40q27 28 29 110v253h163v-507h-163v72q-25 -24 -43.5 -37.5t-70.5 -30t-118 -16.5q-102 0 -165 48q-41 32 -52.5 68.5t-11.5 93.5zM184 571l96 124h204l95 -124h-114l-82 78l-85 -78h-114z " />
<glyph unicode="&#xfc;" horiz-adv-x="771" d="M73 198v309h165v-266q0 -24 1 -37t9 -32.5t23 -33.5q35 -34 111 -34q86 0 123 40q27 28 29 110v253h163v-507h-163v72q-25 -24 -43.5 -37.5t-70.5 -30t-118 -16.5q-102 0 -165 48q-41 32 -52.5 68.5t-11.5 93.5zM215 571v123h147v-123h-147zM420 571v123h148v-123h-148z " />
<glyph unicode="&#xfd;" horiz-adv-x="625" d="M228 0l-226 506h176l120 -315q13 -37 20 -77q4 41 19 82l115 310h174l-238 -539q-46 -99 -85.5 -130t-135.5 -31q-19 0 -122 5v120q57 -5 83 -5q36 0 54 9q11 5 19 16.5t27 48.5zM245 572l52 124h171l-122 -124h-101z" />
<glyph unicode="&#xfe;" d="M237 706v-258q83 70 195 70q114 0 196.5 -68.5t82.5 -198.5q0 -67 -23 -119t-62.5 -83t-87 -47t-99.5 -16q-68 0 -124 23q-45 18 -78 51v-252h-165v898h165zM386 402q-59 -1 -99 -34q-49 -41 -49 -118q0 -44 16 -75.5t41 -46.5t49 -21.5t48 -6.5q71 0 111 42t40 114 q0 22 -7 45t-23 47.5t-49 39.5t-78 14z" />
<glyph unicode="&#xff;" horiz-adv-x="625" d="M228 0l-226 506h176l120 -315q13 -37 20 -77q4 41 19 82l115 310h174l-238 -539q-46 -99 -85.5 -130t-135.5 -31q-19 0 -122 5v120q57 -5 83 -5q36 0 54 9q11 5 19 16.5t27 48.5zM134 572v123h147v-123h-147zM339 572v123h148v-123h-148z" />
<glyph unicode="&#x131;" horiz-adv-x="313" d="M74 506h164v-506h-164v506z" />
<glyph unicode="&#x141;" horiz-adv-x="667" d="M78 302v405h177v-263l155 125v-152l-155 -123v-163h393v-131h-570v151l-79 -64v152z" />
<glyph unicode="&#x142;" horiz-adv-x="313" d="M74 706h164v-181l74 76v-141l-74 -73v-387h-164v221l-75 -75v141l75 74v345z" />
<glyph unicode="&#x152;" horiz-adv-x="1125" d="M537 0v20q-89 -32 -163 -32q-91 0 -155.5 34.5t-100.5 82.5q-74 98 -74 250q0 157 90 260.5t250 103.5q88 0 153 -36v23h532v-123h-355v-160h335v-123h-335v-175h369v-125h-546zM537 133v435q-60 36 -117 36q-41 0 -76.5 -15.5t-44.5 -24.5l-25 -26q-54 -68 -54 -182 q0 -111 50.5 -183t151.5 -72q49 0 115 32z" />
<glyph unicode="&#x153;" horiz-adv-x="1104" d="M1064 224h-443q9 -49 33 -78q42 -53 117 -53q97 0 134 76l159 -14q-35 -84 -112 -129.5t-176 -45.5q-145 0 -226 81q-70 -81 -213 -81q-128 0 -213.5 74t-85.5 197q0 122 82.5 198.5t214.5 76.5q135 0 215 -83q25 24 44 38t66.5 29.5t106.5 15.5q165 0 246 -111 q48 -67 51 -191zM623 314h274q-8 39 -29 63q-34 40 -102 40q-107 0 -143 -103zM332 411q-59 -3 -95 -47.5t-36 -111.5q0 -69 39 -113t99 -44q54 0 94.5 38.5t40.5 119.5q0 78 -41.5 119.5t-100.5 38.5z" />
<glyph unicode="&#x160;" horiz-adv-x="812" d="M21 177l161 42q52 -111 237 -111q23 0 47 3t57 11t53.5 28.5t20.5 50.5q0 34 -24 48.5t-63 21.5q-16 3 -105 17.5l-102 16.5q-30 5 -50 10t-57.5 20.5t-61 35.5t-42 56t-18.5 81q0 55 28 100q75 120 301 120q155 0 255 -55q71 -38 117 -114l-168 -42q-20 37 -62 58 q-55 27 -142 27q-158 0 -158 -82q0 -31 23 -45t71 -25q13 -3 100.5 -18t105.5 -19q33 -6 55.5 -11.5t57 -20.5t55.5 -35t37 -54.5t16 -78.5q0 -47 -15.5 -84.5t-39.5 -61.5t-59 -41.5t-66 -26.5t-69.5 -14t-61 -6t-48.5 -1q-285 0 -386 199zM207 884h114l82 -78l85 78h113 l-95 -124h-204z" />
<glyph unicode="&#x161;" horiz-adv-x="708" d="M45 159l177 13q22 -78 150 -78q56 0 87 11q37 14 37 41q0 17 -15 27t-35.5 14.5t-65.5 10.5l-60 6l-60 6q-187 21 -187 145q0 87 80.5 131.5t214.5 44.5q146 0 227 -58q51 -37 70 -103l-171 -11q-26 62 -136 62q-52 0 -83.5 -13t-31.5 -37q0 -27 43 -36q27 -7 189 -23 q82 -9 115 -25q37 -17 57 -49.5t20 -73.5q0 -68 -49 -112q-76 -70 -251 -70q-84 0 -144.5 14.5t-96 40.5t-53.5 55t-28 67zM161 695h114l82 -79l85 79h113l-95 -124h-204z" />
<glyph unicode="&#x178;" horiz-adv-x="854" d="M337 265l-336 441h218l187 -266q13 -17 20 -36q7 17 17 31l193 271h215l-337 -441v-265h-177v265zM192 757v125h164v-125h-164zM496 757v125h165v-125h-165z" />
<glyph unicode="&#x17d;" horiz-adv-x="812" d="M74 580v126h691v-126l-488 -451h488v-129h-726v129l487 451h-452zM218 884h114l82 -78l85 78h113l-95 -124h-204z" />
<glyph unicode="&#x17e;" horiz-adv-x="667" d="M62 395v111h561v-87l-327 -304h327v-115h-581v83l340 312h-320zM145 695h114l82 -79l85 79h113l-95 -124h-204z" />
<glyph unicode="&#x192;" horiz-adv-x="375" d="M93 454l3 30q3 29 6.5 48t15.5 47t31 45t55.5 30t85.5 13q45 0 105 -15l-12 -107q-26 8 -46 8q-44 0 -63 -29q-9 -14 -16 -70h114l-11 -98h-114l-37 -344q-2 -24 -3.5 -36t-5.5 -36t-9.5 -37t-15.5 -32t-24 -29.5t-33.5 -21.5t-46.5 -16t-60 -5q-46 0 -104 15l12 107 q24 -8 43 -8q26 0 42.5 7.5t24 24.5t10 29.5t4.5 37.5l38 345h-81l11 97h81z" />
<glyph unicode="&#x2c6;" horiz-adv-x="375" d="M-10 571l96 124h204l95 -124h-114l-82 78l-85 -78h-114z" />
<glyph unicode="&#x2c7;" horiz-adv-x="375" d="M-9 695h114l82 -79l85 79h113l-95 -124h-204z" />
<glyph unicode="&#x2d8;" horiz-adv-x="375" d="M12 710h94q6 -16 11 -23.5t23.5 -16t48.5 -8.5q29 0 47 9.5t22 18t7 21.5h97q-4 -50 -28 -78q-45 -53 -148 -53q-95 0 -139 46q-25 25 -35 84z" />
<glyph unicode="&#x2d9;" horiz-adv-x="375" d="M97 700h180v-122h-180v122z" />
<glyph unicode="&#x2da;" horiz-adv-x="375" d="M184 762q57 1 95.5 -27.5t38.5 -75.5q0 -41 -33 -72t-95 -31q-56 0 -95 28.5t-39 75.5q0 45 37.5 73t90.5 29zM185 708q-24 -1 -38 -15t-14 -35t14.5 -34.5t38.5 -13.5q25 0 39.5 14t14.5 35q0 22 -15.5 36t-39.5 13z" />
<glyph unicode="&#x2db;" horiz-adv-x="375" d="M192 6h84q-2 -1 -12.5 -4t-15.5 -5q-28 -12 -49 -37t-21 -48q0 -33 46 -33q33 0 84 11v-86q-74 -13 -120 -13q-121 0 -121 80q0 78 125 135z" />
<glyph unicode="&#x2dc;" horiz-adv-x="375" d="M47 579l-62 1q2 17 3.5 27.5t8.5 29.5t18 30.5t31.5 20.5t48.5 9q34 0 110 -23q53 -17 76 -17q42 0 49 38h61q-2 -17 -3.5 -28.5t-9 -31t-18.5 -31t-32 -21t-49 -9.5q-20 0 -58 8q-16 4 -50 14.5t-53 14.5q-12 3 -26 3q-16 0 -26.5 -7t-13 -12.5t-5.5 -15.5z" />
<glyph unicode="&#x2dd;" horiz-adv-x="375" d="M-23 572l53 124h171l-123 -124h-101zM174 572l53 124h171l-123 -124h-101z" />
<glyph unicode="&#x3bc;" horiz-adv-x="771" d="M697 506v-505h-163v71q-29 -32 -60 -53q-46 -30 -106 -30q-74 0 -131 46v-227h-164v698h165v-277q0 -29 8 -53q22 -72 132 -72q89 0 126 39q29 30 29 116v247h164z" />
<glyph unicode="&#x2000;" horiz-adv-x="464" />
<glyph unicode="&#x2001;" horiz-adv-x="928" />
<glyph unicode="&#x2002;" horiz-adv-x="464" />
<glyph unicode="&#x2003;" horiz-adv-x="928" />
<glyph unicode="&#x2004;" horiz-adv-x="309" />
<glyph unicode="&#x2005;" horiz-adv-x="232" />
<glyph unicode="&#x2006;" horiz-adv-x="154" />
<glyph unicode="&#x2007;" horiz-adv-x="154" />
<glyph unicode="&#x2008;" horiz-adv-x="116" />
<glyph unicode="&#x2009;" horiz-adv-x="185" />
<glyph unicode="&#x200a;" horiz-adv-x="51" />
<glyph unicode="&#x2010;" horiz-adv-x="396" d="M70 217v124h283v-124h-283z" />
<glyph unicode="&#x2011;" horiz-adv-x="396" d="M70 217v124h283v-124h-283z" />
<glyph unicode="&#x2012;" horiz-adv-x="396" d="M70 217v124h283v-124h-283z" />
<glyph unicode="&#x2013;" d="M70 341h609v-124h-609v124z" />
<glyph unicode="&#x2014;" horiz-adv-x="833" d="M70 341h692v-124h-692v124z" />
<glyph unicode="&#x2018;" horiz-adv-x="292" d="M227 554v-143h-166v134q0 60 12 88q10 25 28 40.5t43 22t41.5 8t41.5 2.5v-48q-50 -6 -66.5 -27.5t-16.5 -76.5h83z" />
<glyph unicode="&#x2019;" horiz-adv-x="292" d="M62 565v141h166v-132q0 -60 -12 -89q-10 -25 -28 -40.5t-43 -22t-41.5 -8t-41.5 -2.5v49q50 5 66.5 26.5t16.5 77.5h-83z" />
<glyph unicode="&#x201a;" horiz-adv-x="292" d="M63 0v143h166v-146q-4 -58 -12 -78q-10 -24 -28 -39.5t-43 -21.5t-41.5 -7.5t-41.5 -2.5v48q50 5 66.5 26.5t16.5 77.5h-83z" />
<glyph unicode="&#x201c;" horiz-adv-x="542" d="M228 555v-142h-165v134q0 62 12 88q10 25 28 40.5t43 22t41 8t41 2.5v-48q-50 -6 -66.5 -27.5t-16.5 -77.5h83zM475 555v-143h-165v134q0 62 11 89q11 24 29 40t43 22t41 7.5t41 2.5v-48q-49 -5 -66 -27t-17 -77h83z" />
<glyph unicode="&#x201d;" horiz-adv-x="542" d="M311 565v141h165v-133q0 -62 -11 -89q-11 -25 -28.5 -40.5t-43 -21.5t-41 -7.5t-41.5 -2.5v48q50 5 66.5 27t16.5 78h-83zM65 565v141h166v-132q0 -62 -12 -89q-10 -25 -28 -40.5t-43 -22t-41.5 -8t-41.5 -2.5v49q50 5 66.5 26.5t17.5 77.5h-84z" />
<glyph unicode="&#x201e;" horiz-adv-x="542" d="M309 0v142h165v-134q0 -62 -12 -89q-10 -24 -28 -40t-43 -22t-41 -7.5t-41 -2.5v48q50 6 66 27.5t17 77.5h-83zM63 0v143h166v-134q-2 -65 -12 -89q-11 -24 -29 -40t-43 -22t-41 -7.5t-41 -2.5v48q50 5 66.5 26.5t16.5 77.5h-83z" />
<glyph unicode="&#x2020;" horiz-adv-x="625" d="M228 506v200h165v-200h207v-130h-207v-501h-165v501h-205v130h205z" />
<glyph unicode="&#x2021;" horiz-adv-x="625" d="M230 545v162h165v-162h204v-126h-204v-237h204v-126h-204v-180h-165v180h-206v126h206v237h-206v126h206z" />
<glyph unicode="&#x2022;" horiz-adv-x="333" d="M309 353q0 -61 -38.5 -102t-100.5 -41q-65 0 -105.5 43t-40.5 99q0 58 41.5 100.5t103.5 42.5q58 0 99 -40t41 -102z" />
<glyph unicode="&#x2026;" horiz-adv-x="1000" d="M85 143h164v-143h-164v143zM418 143h164v-143h-164v143zM751 143h164v-143h-164v143z" />
<glyph unicode="&#x202f;" horiz-adv-x="185" />
<glyph unicode="&#x2030;" horiz-adv-x="1625" d="M321 19l409 652l72 -45l-410 -652zM243 656q97 3 164.5 -52.5t67.5 -175.5q0 -100 -49 -159q-29 -34 -76.5 -53t-99.5 -19q-116 0 -177 74q-48 59 -48 153q0 108 55.5 168t162.5 64zM242 566q-97 -7 -97 -140q0 -64 26.5 -101t77.5 -37q49 0 74 35q27 38 27 111 q0 97 -56 124q-21 10 -52 8zM859 449q106 4 172 -54t66 -176q0 -129 -80 -186q-62 -43 -145 -43q-50 0 -97.5 18t-76.5 52q-51 62 -51 158q0 98 48 159q57 69 164 72zM863 359q-96 -8 -96 -140q0 -58 24.5 -98t80.5 -40q55 0 77.5 44t22.5 105q0 59 -25 96t-84 33zM1359 449 q106 4 172 -54t66 -176q0 -129 -80 -186q-62 -43 -145 -43q-50 0 -97.5 18t-76.5 52q-51 62 -51 158q0 98 48 159q57 69 164 72zM1363 359q-96 -8 -96 -140q0 -58 24.5 -98t80.5 -40q55 0 77.5 44t22.5 105q0 59 -25 96t-84 33z" />
<glyph unicode="&#x2039;" horiz-adv-x="313" d="M40 306l224 169v-102l-124 -120l124 -114v-103l-224 166v104z" />
<glyph unicode="&#x203a;" horiz-adv-x="313" d="M46 372v104l225 -167v-104l-225 -169v102l123 119z" />
<glyph unicode="&#x2044;" horiz-adv-x="125" d="M-147 18l364 695l50 -26l-364 -695z" />
<glyph unicode="&#x205f;" horiz-adv-x="232" />
<glyph unicode="&#x2122;" horiz-adv-x="687" d="M655 706v-332h-69l3 191q0 20 4 68l-15 -55l-62 -204h-63l-64 204q-1 4 -7.5 26.5t-7.5 26.5q3 -20 5 -66l4 -191h-69v332h92l80 -251l76 251h93zM184 648v-274h-71v274h-105v58h278v-58h-102z" />
<glyph unicode="&#x2212;" horiz-adv-x="667" d="M667 345v-103h-667v103h667z" />
<glyph unicode="&#xe000;" horiz-adv-x="505" d="M0 505h505v-505h-505v505z" />
<glyph unicode="&#xfb01;" horiz-adv-x="688" d="M15 506h81q0 79 4 102q22 111 169 111q40 0 106 -15v-107q-22 8 -43 8q-50 0 -65 -34q-6 -12 -6 -65h114v-98h-114v-408h-165v409h-81v97zM448 682h166v-112h-166v112zM449 508h164v-508h-164v508z" />
<glyph unicode="&#xfb02;" horiz-adv-x="688" d="M96 506v33q0 28 1 46.5t10.5 46.5t26.5 45t51.5 29.5t83.5 12.5q40 0 106 -15v-107q-22 8 -44 8q-49 0 -65 -34q-5 -12 -5 -65h114v-98h-114v-408h-165v409h-81v97h81zM448 0v706h164v-706h-164z" />
<glyph unicode="&#xfffd;" horiz-adv-x="375" />
</font>
</defs>
</svg>
