<?xml version="1.0" standalone="no"?>
<!DOCTYPE svg PUBLIC "-//W3C//DTD SVG 1.1//EN" "http://www.w3.org/Graphics/SVG/1.1/DTD/svg11.dtd" >
<svg xmlns="http://www.w3.org/2000/svg">
<metadata>
This is a custom SVG webfont generated by Font Squirrel.
Copyright   : Copyright c 1991 Adobe Systems Incorporated All Rights ReservedBerthold Akzidenz Grotesk is a registered trademark of H Berthold AG
</metadata>
<defs>
<font id="webfont1gB0xOE4" horiz-adv-x="1067" >
<font-face units-per-em="2048" ascent="1638" descent="-410" />
<missing-glyph horiz-adv-x="555" />
<glyph unicode=" "  horiz-adv-x="555" />
<glyph unicode="&#x09;" horiz-adv-x="555" />
<glyph unicode="&#xa0;" horiz-adv-x="555" />
<glyph unicode="!" horiz-adv-x="555" d="M285 301l-49 578v567h161v-590l-49 -555h-63zM236 0v184h161v-184h-161z" />
<glyph unicode="&#x22;" horiz-adv-x="811" d="M702 1413l-81 -524h-48l-79 500q-2 14 -2 38q0 53 33.5 80t76.5 27q63 0 90 -47q14 -23 10 -74zM319 1413l-83 -524h-48l-79 500q0 8 -1.5 20t-1.5 18q0 53 35 80t78 27q61 0 88 -47q12 -21 12 -74z" />
<glyph unicode="#" horiz-adv-x="1366" d="M922 469l-68 -469h-162l68 469h-228l-67 -469h-166l72 469h-285v158h305l33 221h-291v158h311l64 438h164l-64 -438h226l65 438h160l-62 -438h283v-158h-303l-33 -221h285v-158h-307zM553 627h229l31 221h-227z" />
<glyph unicode="$" horiz-adv-x="1280" d="M590 1692h137v-228q193 -41 293 -118q135 -106 174 -267l-190 -18q-25 72 -60 115q-82 115 -217 133v-484q74 -20 132.5 -40.5t131 -58.5t121.5 -83t83 -113.5t34 -148.5q0 -193 -159 -307.5t-343 -108.5v-244h-137v244q-203 20 -340 123q-160 115 -207 330l207 24 q18 -90 69 -157q94 -127 271 -160v518q-215 68 -301 133q-158 117 -158 291q0 166 137 281q113 94 322 116v228zM590 864v451q-78 -8 -125 -33q-63 -31 -95 -83t-32 -107q0 -51 19.5 -89t62.5 -65t77 -41.5t93 -32.5zM727 604v-485q72 6 104 16q92 23 139.5 84.5t47.5 134.5 q0 88 -69.5 145.5t-221.5 104.5z" />
<glyph unicode="%" horiz-adv-x="1835" d="M1739 438q-4 -205 -88 -330.5t-244 -125.5q-106 0 -188 63q-147 115 -148 404q0 117 27 204q39 137 127 205q78 63 178 64q90 0 176 -59.5t131 -198.5q29 -89 29 -226zM1606 436q0 102 -17 178q-47 186 -186 187q-51 0 -89 -24.5t-56.5 -62.5t-26.5 -62.5t-12 -49.5 q-14 -72 -15 -151q0 -100 21 -181q49 -172 184 -172q66 0 110 42t60 108.5t21.5 107.5t5.5 80zM1159 1397l111 -54l-649 -1402l-113 53zM723 922q-2 -276 -143 -396q-80 -68 -191 -67q-166 0 -251 140t-85 325q0 190 86 332.5t246 142.5q141 0 240.5 -122t97.5 -355z M590 922q0 223 -82 307q-57 53 -121 53q-145 0 -186 -195q-14 -72 -15 -153q0 -45 4.5 -85t20.5 -111.5t62 -115.5t116 -44t121 51q80 76 80 293z" />
<glyph unicode="&#x26;" horiz-adv-x="1236" d="M956 666h156q-27 -207 -156 -404q92 -106 199 -106q10 0 59 6v-170q-41 -8 -75 -8q-176 0 -301 147q-180 -150 -363 -149q-158 0 -276.5 107.5t-118.5 287.5q0 82 22 143q25 70 76 133.5t115 102.5q6 4 59.5 35.5t61.5 39.5q-45 121 -56.5 164t-11.5 103q0 145 91 240.5 t233 95.5q127 0 213 -81t86 -206q0 -74 -30 -136.5t-87 -111.5t-97 -75.5t-102 -59.5q106 -209 207 -367q69 132 96 269zM580 907q225 98 225 260q0 66 -40 105t-95 39q-61 0 -109.5 -47t-48.5 -131q0 -91 68 -226zM483 690q-231 -109 -231 -293q0 -92 67.5 -175t184.5 -83 q115 0 237 107q-43 61 -133 214.5t-125 229.5z" />
<glyph unicode="'" horiz-adv-x="425" d="M319 1413l-83 -524h-48l-79 500q0 8 -1.5 20t-1.5 18q0 53 35 80t78 27q61 0 88 -47q12 -21 12 -74z" />
<glyph unicode="(" horiz-adv-x="641" d="M481 1567h133q-270 -471 -270 -910q0 -221 75 -475t195 -440h-133q-100 139 -201.5 390t-101.5 519q0 176 55.5 377t143.5 361l55 93q47 79 49 85z" />
<glyph unicode=")" horiz-adv-x="641" d="M158 -258h-133q270 457 270 909q0 227 -74 473q-70 236 -196 443h133q303 -459 303 -912q0 -244 -105 -530q-69 -182 -198 -383z" />
<glyph unicode="*" horiz-adv-x="768" d="M324 1446h122v-242l234 74l35 -121l-234 -74l154 -190l-100 -80l-146 195l-137 -195l-105 66l146 204l-240 74l37 121l234 -74v242z" />
<glyph unicode="+" horiz-adv-x="1366" d="M762 514v-514h-164v514h-510v164h510v510h164v-510h514v-164h-514z" />
<glyph unicode="," horiz-adv-x="468" d="M129 223h203v-104q-2 -141 -19.5 -226.5t-66.5 -211.5h-94q57 150 65 319h-88v223z" />
<glyph unicode="-" horiz-adv-x="598" d="M92 682h414v-156h-414v156z" />
<glyph unicode="." horiz-adv-x="468" d="M131 231h203v-231h-203v231z" />
<glyph unicode="/" horiz-adv-x="681" d="M504 1438h153l-473 -1438h-157z" />
<glyph unicode="0" horiz-adv-x="1193" d="M1096 690q0 -315 -134.5 -508.5t-363.5 -193.5q-231 0 -364.5 192.5t-133.5 497.5q0 315 131 515t363 200q211 0 356.5 -184.5t145.5 -518.5zM911 688q2 135 -23.5 251t-99 205t-188.5 89q-156 0 -240 -148q-78 -137 -77 -397q0 -244 75 -387q84 -156 242 -156 q82 0 143.5 46.5t92 108.5t49 145t22.5 137.5t4 105.5z" />
<glyph unicode="1" horiz-adv-x="1193" d="M594 1380h137v-1380h-192v1010h-297v127q160 2 242.5 51t109.5 192z" />
<glyph unicode="2" horiz-adv-x="1193" d="M401 158h664v-158h-903v176q201 102 438 330q258 242 258 461q0 125 -68.5 195.5t-191.5 70.5t-191.5 -67.5t-68.5 -204.5q0 -70 24 -164h-180q-25 82 -24 164q0 201 118 315q123 117 326 117q207 0 327 -127t120 -308q0 -100 -36 -194t-103.5 -175t-110.5 -123t-111 -99 q-103 -86 -287 -209z" />
<glyph unicode="3" horiz-adv-x="1193" d="M311 918l-182 10q10 150 41 221q102 244 414 244q225 0 341.5 -115t116.5 -270q0 -88 -32 -160q-35 -72 -136 -131q209 -104 209 -330q0 -162 -117.5 -280.5t-363.5 -118.5q-299 0 -432 178q-84 111 -88 291h186q2 -61 12.5 -104.5t40 -95.5t97 -79.5t172.5 -27.5 q141 0 223 63q78 66 78 184q0 55 -16.5 98.5t-47 67t-60.5 38.5t-74 21.5t-66.5 7.5t-57.5 1q-55 0 -116 -6v168q74 -4 102 -5q303 0 303 220q0 106 -79 169.5t-197 63.5q-127 0 -199 -80q-64 -71 -72 -243z" />
<glyph unicode="4" horiz-adv-x="1193" d="M891 487h201v-155h-201v-332h-180v332h-625v164l662 884h143v-893zM272 487h439l8 617z" />
<glyph unicode="5" horiz-adv-x="1193" d="M147 629l46 751h786v-161h-649l-17 -365q125 113 308 113q145 0 251.5 -74t154.5 -181.5t48 -230.5q0 -84 -26.5 -167t-82 -158.5t-153.5 -121.5t-225 -46q-197 0 -333 111.5t-159 330.5l183 12q14 -121 85.5 -209t215.5 -88q141 0 224 94.5t83 249.5q0 143 -81 230.5 t-220 87.5q-117 0 -182.5 -58.5t-90.5 -119.5h-166z" />
<glyph unicode="6" horiz-adv-x="1193" d="M1044 1036l-180 -24q-37 225 -239 225q-147 0 -224 -113q-39 -55 -60.5 -126.5t-26.5 -119t-11 -135.5q131 168 342 168q178 0 307 -121.5t129 -322.5q0 -199 -126 -339t-332 -140q-233 0 -371 186q-125 174 -125 500q0 143 29 284q8 41 18 76t46 107.5t82 122t131 89.5 t190 40q162 0 274 -88q96 -79 147 -269zM899 455q0 119 -73.5 204.5t-204.5 85.5q-135 0 -212 -87t-77 -207q0 -127 82 -213t211 -86q133 0 203.5 91t70.5 212z" />
<glyph unicode="7" horiz-adv-x="1193" d="M197 954v426h845v-198q-4 -53 -15 -83t-64 -120l-72 -125q-143 -270 -225 -468t-105 -386h-217q31 199 130 415t288 529l61 94q47 70 58.5 99.5t9.5 79.5h-547v-263h-147z" />
<glyph unicode="8" horiz-adv-x="1193" d="M895 741q37 -23 59.5 -39t60.5 -56t57.5 -98.5t19.5 -131.5q0 -182 -127 -305t-367 -123q-238 0 -365 124t-127 298q0 98 44 182q18 39 45.5 68.5t45 44t54.5 36.5q-154 100 -154 285q0 176 123 274q117 92 338 93q115 0 195 -23q137 -41 196.5 -136t59.5 -206 q0 -195 -158 -287zM868 1028q0 63 -28.5 108.5t-74.5 65t-87 26.5t-86 7q-131 0 -199.5 -55.5t-68.5 -147.5q0 -104 71 -164q66 -55 203 -55q133 0 199 53q71 58 71 162zM901 416q-2 117 -84 180t-225 63q-152 0 -225.5 -70.5t-73.5 -176.5q0 -121 86 -188.5t223 -67.5 t219 70.5t80 189.5z" />
<glyph unicode="9" horiz-adv-x="1193" d="M150 334l178 33q12 -43 22 -70t37 -69t74 -63.5t112 -21.5q104 0 177 61.5t102 154t39 154.5t10 110q-135 -176 -344 -177q-190 0 -320.5 125t-130.5 336q0 199 121 339t344 140q113 0 200 -36.5t144.5 -99t93 -150.5t51 -185.5t15.5 -209.5q0 -352 -141 -545 q-131 -172 -371 -172q-143 0 -248 78q-114 86 -165 268zM883 885q4 135 -77 241.5t-233 106.5q-139 0 -211.5 -96.5t-72.5 -235.5t83 -215t203 -76q125 0 214.5 73t93.5 202z" />
<glyph unicode=":" horiz-adv-x="555" d="M217 1001h201v-229h-201v229zM217 231h201v-231h-201v231z" />
<glyph unicode=";" horiz-adv-x="555" d="M219 1004h203v-226h-203v226zM219 227h203v-125q0 -238 -78 -417h-94q51 160 51 315h-82v227z" />
<glyph unicode="&#x3c;" horiz-adv-x="1366" d="M1366 170v-176l-1366 641v176l1366 641v-178l-1161 -551z" />
<glyph unicode="=" horiz-adv-x="1366" d="M1366 492v-160h-1366v160h1366zM1366 862v-162h-1366v162h1366z" />
<glyph unicode="&#x3e;" horiz-adv-x="1366" d="M1366 635l-1366 -641v176l1161 553l-1161 551v178l1366 -641v-176z" />
<glyph unicode="?" horiz-adv-x="1150" d="M688 618v-311h-162v484q68 0 133 6q76 6 129 34q49 27 84 80.5t35 126.5q0 125 -92 196t-213 71q-201 0 -260 -177q-23 -68 -18 -163h-179q-4 139 42 241.5t122 153.5t149.5 74.5t145.5 23.5q184 0 327.5 -118.5t143.5 -323.5q0 -129 -59.5 -217t-138.5 -131 q-72 -38 -189 -50zM516 199h180v-199h-180v199z" />
<glyph unicode="@" horiz-adv-x="1835" d="M1612 156l65 -82q-334 -328 -747 -328q-106 0 -212 23.5t-211.5 79t-185 137.5t-130 211t-50.5 286q0 248 117 469.5t337 363.5t492 142q276 0 441.5 -162.5t165.5 -431.5q0 -254 -127 -469q-74 -123 -167 -187.5t-177 -64.5q-43 0 -82 17q-80 35 -90 157 q-127 -172 -295 -172q-109 0 -188 82t-79 246q0 231 130.5 408.5t302.5 177.5q57 0 100 -17.5t70.5 -51.5t39 -53t25.5 -50l31 127h139l-67 -307q-57 -285 -58 -355q0 -47 19.5 -67.5t42.5 -20.5q94 0 202.5 185.5t108.5 412.5q0 219 -133 351.5t-373 132.5 q-326 0 -569.5 -257.5t-243.5 -607.5q0 -166 61.5 -292t164 -194.5t214 -102t228.5 -33.5q377 0 688 297zM1108 711q2 106 -50 161.5t-120 55.5q-123 0 -205 -142.5t-82 -300.5q0 -66 18.5 -110.5t47 -64t51.5 -27t43 -7.5q117 0 205 130.5t92 304.5z" />
<glyph unicode="A" horiz-adv-x="1323" d="M1096 0l-158 442h-551l-162 -442h-205l551 1446h201l526 -1446h-202zM449 604h432l-211 602z" />
<glyph unicode="B" horiz-adv-x="1409" d="M158 0v1446h596q135 0 194 -10q129 -25 224.5 -116t95.5 -245q0 -123 -65.5 -205t-155.5 -108q266 -80 266 -363q0 -217 -164 -323q-78 -51 -159 -62.5t-267 -13.5h-565zM788 1276h-448v-438h301q190 0 266 15t121 83q37 53 37 129q-1 211 -277 211zM694 674h-354v-504 h428q139 2 178 12q168 39 168 232q0 162 -139 231q-62 27 -281 29z" />
<glyph unicode="C" horiz-adv-x="1536" d="M1309 549l211 -25q-25 -106 -80.5 -203.5t-141.5 -179.5t-213 -130t-278 -48q-340 0 -523.5 219t-183.5 541q0 211 77 379t247 274.5t410 106.5q498 0 657 -443l-195 -41q-37 104 -86 162q-135 168 -379 168q-119 0 -223 -47t-174 -135q-121 -150 -121 -414 q0 -276 135.5 -443t380.5 -167q113 0 210.5 41t173.5 140.5t96 244.5z" />
<glyph unicode="D" horiz-adv-x="1449" d="M160 0v1446h452q100 0 153.5 -3t133.5 -18.5t144.5 -54.5t123.5 -102q180 -193 181 -545q0 -379 -203 -569q-59 -53 -126 -88t-138.5 -47.5t-114.5 -15.5t-109 -3h-497zM584 1276h-228v-1110h256q80 2 122 4t97.5 15.5t100.5 39.5q219 121 219 496q0 436 -301 530 q-80 25 -266 25z" />
<glyph unicode="E" horiz-adv-x="1236" d="M1051 659h-705v-491h836v-168h-1022v1446h997v-170h-811v-447h705v-170z" />
<glyph unicode="F" horiz-adv-x="1110" d="M1036 680h-684v-680h-192v1448h927v-172h-735v-428h684v-168z" />
<glyph unicode="G" horiz-adv-x="1662" d="M846 764h672v-764h-166v203q-86 -125 -226.5 -182.5t-302.5 -57.5q-330 0 -525.5 207t-195.5 535q0 143 44 277t131.5 249t236 183.5t336.5 68.5q301 0 504 -185q96 -92 164 -233l-199 -53q-41 109 -100 170q-131 141 -363 141q-145 0 -254.5 -55.5t-170 -146.5 t-89.5 -191.5t-29 -204.5q0 -109 30 -209t89.5 -189t167 -142.5t248.5 -53.5q59 0 121.5 11.5t134.5 44t125 84t89 137.5q34 81 34 182v12h-506v162z" />
<glyph unicode="H" horiz-adv-x="1492" d="M1141 0v662h-787v-662h-192v1448h192v-617h787v617h194v-1448h-194z" />
<glyph unicode="I" horiz-adv-x="468" d="M137 1446h195v-1446h-195v1446z" />
<glyph unicode="J" horiz-adv-x="768" d="M412 1448h196v-1063q0 -72 -3 -109.5t-22.5 -93t-58.5 -98.5q-109 -119 -311 -119q-86 0 -195 21v209q74 -41 170 -41q86 0 136 28q59 31 73.5 89.5t14.5 195.5v981z" />
<glyph unicode="K" horiz-adv-x="1280" d="M1044 0l-509 711l-205 -207v-504h-193v1446h193v-707l686 707h237l-585 -598l610 -848h-234z" />
<glyph unicode="L" d="M332 1448v-1276h700v-172h-893v1448h193z" />
<glyph unicode="M" horiz-adv-x="1662" d="M1278 1446h248v-1446h-191l27 1212l-457 -1212h-149l-449 1194l21 -1194h-189v1446h248l444 -1186z" />
<glyph unicode="N" horiz-adv-x="1449" d="M1116 1446h174v-1446h-174l-792 1176l16 -1176h-180v1446h180l784 -1159z" />
<glyph unicode="O" horiz-adv-x="1662" d="M1561 737q0 -340 -192.5 -557t-541.5 -217q-328 0 -525.5 210t-197.5 550q0 193 62.5 343.5t168 238.5t232.5 133t267 45q313 0 520 -201t207 -545zM1352 735q-2 268 -137.5 430t-380.5 162q-258 0 -389.5 -171t-131.5 -435q0 -252 131 -429t392 -177q139 0 243.5 54 t161.5 145.5t84 196.5t27 224z" />
<glyph unicode="P" horiz-adv-x="1280" d="M760 612h-418v-612h-186v1446h624q154 0 230 -25q123 -43 185 -147.5t62 -237.5t-65.5 -246.5t-200.5 -154.5q-71 -23 -231 -23zM342 1280v-498h403q70 0 104 2t76 17.5t72 46.5q70 70 70 192q0 121 -76 185q-66 55 -203 55h-446z" />
<glyph unicode="Q" horiz-adv-x="1662" d="M1530 -74l-232 195q-201 -158 -475 -158q-338 0 -532.5 216t-194.5 544q0 334 199 547t539 213q348 0 537.5 -214t189.5 -546q0 -260 -134 -461l224 -192zM1205 1171q-146 162 -375.5 162t-377 -163.5t-147.5 -442.5q0 -274 143.5 -441t385.5 -167q227 0 374 156 q145 155 146 438q0 294 -149 458z" />
<glyph unicode="R" horiz-adv-x="1366" d="M721 614h-373v-614h-188v1446h536q127 -2 182.5 -5t126 -22.5t123.5 -60.5q152 -113 152 -334q0 -338 -342 -397l405 -627h-229zM348 1286v-512h383q119 0 176 14q180 45 180 234q0 131 -86 203q-35 31 -86 44t-84.5 15t-109.5 2h-373z" />
<glyph unicode="S" horiz-adv-x="1366" d="M782 643l-120 25q-84 16 -136.5 30.5t-133.5 47t-128 72.5t-83 107.5t-36 153.5q0 168 134 281q143 123 386.5 123t389.5 -107q150 -109 186 -340l-194 -12q-8 160 -117 240q-96 70 -258 69q-139 0 -233.5 -58t-94.5 -169q0 -45 19.5 -82t43 -58.5t69.5 -40t74 -25.5 l79 -19l159 -41q180 -43 228 -64q250 -104 250 -360q0 -225 -185 -350q-152 -102 -393 -103q-45 0 -89 4t-118.5 18.5t-136 48.5t-123 85t-99.5 140t-46 202l207 26q6 -180 116 -278q111 -96 297 -96q160 0 260.5 75.5t100.5 212.5q0 59 -21.5 103.5t-64.5 71t-85.5 41 t-103.5 26.5z" />
<glyph unicode="T" horiz-adv-x="1110" d="M1081 1278h-432v-1278h-194v1278h-435v170h1061v-170z" />
<glyph unicode="U" horiz-adv-x="1409" d="M1057 1448h194v-924q-4 -133 -18 -188q-35 -152 -171 -261.5t-370 -109.5q-295 0 -444 193q-45 57 -66.5 125.5t-24.5 115.5t-3 152v897h194v-870q-1 -34 -1 -62q0 -41 2 -69q3 -46 20.5 -105t52.5 -102q90 -113 270 -113q131 0 223.5 61.5t122.5 178.5q14 57 19 215v866 z" />
<glyph unicode="V" horiz-adv-x="1236" d="M610 238l398 1208h204l-510 -1446h-192l-487 1446h204z" />
<glyph unicode="W" horiz-adv-x="2091" d="M1518 248l337 1198h199l-442 -1446h-189l-381 1198l-368 -1198h-193l-444 1446h203l342 -1198l366 1198h189z" />
<glyph unicode="X" horiz-adv-x="1280" d="M1186 1446l-441 -688l494 -758h-227l-375 588l-371 -588h-223l481 758l-454 688h229l338 -520l321 520h228z" />
<glyph unicode="Y" horiz-adv-x="1280" d="M1251 1446l-520 -784v-662h-194v662l-510 784h229l379 -612l387 612h229z" />
<glyph unicode="Z" horiz-adv-x="1236" d="M109 1446h1040v-180l-889 -1092h909v-174h-1132v188l893 1080h-821v178z" />
<glyph unicode="[" horiz-adv-x="641" d="M618 1399h-212v-1503h212v-123h-385v1753h385v-127z" />
<glyph unicode="\" horiz-adv-x="681" d="M184 1438l473 -1438h-153l-477 1438h157z" />
<glyph unicode="]" horiz-adv-x="641" d="M23 -100h213v1503h-213v123h385v-1753h-385v127z" />
<glyph unicode="^" horiz-adv-x="1366" d="M770 1446l369 -756h-199l-254 531l-262 -531h-197l385 756h158z" />
<glyph unicode="_" horiz-adv-x="1024" d="M1044 -154v-102h-1064v102h1064z" />
<glyph unicode="`" horiz-adv-x="555" d="M145 1362h181l84 -295h-97z" />
<glyph unicode="a" horiz-adv-x="1024" d="M555 565l154 13v24q0 43 -1 67.5t-12.5 68.5t-33 68.5t-65.5 44t-105 19.5q-59 0 -101.5 -17t-62 -38.5t-30.5 -54.5t-12 -50.5t-1 -41.5l-172 10q10 94 39 145q92 172 333 172q178 0 283 -82q39 -31 61.5 -66.5t31.5 -82.5t10 -81t1 -95v-314q2 -57 4.5 -79.5t17.5 -41 t48 -18.5q29 0 53 10v-141q-72 -16 -102 -16q-147 0 -168 143q-41 -41 -69.5 -66.5t-103.5 -58.5t-159 -33q-143 0 -235 77t-92 200q0 82 43 145q96 143 446 170zM711 473q-178 -29 -254 -45q-123 -27 -167 -71t-44 -103q0 -61 48 -102t134 -41q188 0 256 145q18 39 22.5 75 t4.5 142z" />
<glyph unicode="b" horiz-adv-x="1150" d="M133 1448h164v-614q127 162 332 161q178 0 311 -128t133 -386q0 -209 -109.5 -359.5t-336.5 -150.5q-215 0 -330 154v-125h-164v1448zM293 481q0 -188 88 -280t217 -92q154 0 227.5 112.5t73.5 267.5q0 170 -85 263.5t-214 93.5q-121 0 -213 -86t-94 -279z" />
<glyph unicode="c" d="M836 365l176 -17q-14 -88 -56 -164q-115 -213 -395 -213q-127 0 -223 44t-150.5 119t-81 160t-26.5 179q0 221 119.5 371.5t347.5 150.5q92 0 173 -22.5t163 -99t110 -201.5l-180 -17q-4 27 -13 53.5t-35 69.5t-81 71t-131 28q-98 0 -162.5 -46.5t-90.5 -121t-33 -123.5 t-7 -101q0 -164 64 -260q82 -129 239 -129q68 0 118 21.5t76.5 49.5t45 72t24 67.5t9.5 58.5z" />
<glyph unicode="d" horiz-adv-x="1150" d="M854 1448h164v-1448h-164v125q-127 -154 -332 -154q-207 0 -324.5 141.5t-117.5 374.5q0 135 41 237.5t107.5 159t140 84t151.5 27.5q213 0 334 -157v610zM561 848q-51 0 -101 -16.5t-98.5 -55.5t-78 -114.5t-29.5 -180.5q0 -160 76 -262t225 -102q141 0 222 99t81 271 q0 186 -89 272.5t-208 88.5z" />
<glyph unicode="e" d="M823 319l166 -22q-113 -326 -436 -326q-217 0 -345 139.5t-128 381.5q0 131 43 231t113.5 157.5t149.5 86t161 28.5q147 0 265 -85t159 -257q18 -82 18 -196h-733v-14q0 -133 75 -238q79 -111 236 -111q104 0 168.5 61.5t87.5 163.5zM260 573h551q-10 166 -98 231.5 t-178 65.5q-109 0 -185 -78t-90 -219z" />
<glyph unicode="f" horiz-adv-x="555" d="M342 1133v-168h182v-136h-182v-829h-158v829h-161v136h161l2 196q0 37 3.5 61.5t16.5 69.5t37.5 72t74 49.5t118.5 22.5q27 0 119 -13v-127q-61 8 -90 9q-43 0 -69.5 -14.5t-37 -45.5t-13.5 -52t-3 -60z" />
<glyph unicode="g" horiz-adv-x="1150" d="M848 965h170v-912q0 -80 -1 -118.5t-15.5 -104.5t-43.5 -113q-53 -94 -157.5 -140t-229.5 -46q-180 0 -295 82q-121 86 -147 278h184q-2 -94 62.5 -160.5t206.5 -66.5q135 0 204 70q41 43 50.5 99t11.5 196v112q-121 -170 -318 -170q-186 0 -316 133.5t-130 372.5 q0 139 42 243.5t109.5 162t142.5 85t154 27.5q180 0 316 -159v129zM547 848q-133 -2 -214 -100.5t-81 -264.5q0 -160 67 -252q86 -115 238 -114q154 0 236 123q63 96 63 258q0 92 -26.5 161.5t-62.5 104.5t-84 55.5t-77.5 24.5t-58.5 4z" />
<glyph unicode="h" d="M135 0v1448h166v-580q119 127 293 127q143 0 221 -62.5t105 -150.5q18 -61 18 -221v-561h-166v510q0 113 -6 166t-33 94q-57 82 -170 82q-86 0 -156.5 -51t-93.5 -156q-12 -53 -12 -176v-469h-166z" />
<glyph unicode="i" horiz-adv-x="425" d="M141 1446h158v-189h-158v189zM141 965h158v-965h-158v965z" />
<glyph unicode="j" horiz-adv-x="425" d="M133 1446h160v-191h-160v191zM133 963h160v-1176q-2 -53 -4 -77.5t-13.5 -59.5t-35.5 -60q-57 -59 -179 -59q-41 0 -108 6v148q43 -6 74 -7q51 0 74.5 23t27.5 48.5t4 80.5v1133z" />
<glyph unicode="k" horiz-adv-x="937" d="M885 965l-359 -381l441 -584h-205l-346 463l-117 -123v-340h-166v1446h166v-891l385 410h201z" />
<glyph unicode="l" horiz-adv-x="425" d="M135 1446h158v-1446h-158v1446z" />
<glyph unicode="m" horiz-adv-x="1579" d="M125 965h160v-129q135 160 288 159q74 0 130.5 -32.5t78 -62.5t54.5 -83q57 57 91 87t98.5 60.5t131.5 30.5q88 0 161 -48t103 -120q27 -63 27 -221v-604h-160v565q0 121 -8 154q-14 51 -51 79.5t-63.5 35t-53.5 6.5q-111 0 -188 -82q-37 -39 -47.5 -81t-10.5 -136v-541 h-159v621q0 104 -37 153q-47 66 -142 66q-98 0 -180 -72q-43 -39 -53 -79t-10 -118v-573h-160v965z" />
<glyph unicode="n" d="M133 965h164v-142q98 172 301 172q104 0 194.5 -55t122.5 -166q16 -57 17 -199v-575h-162v549q0 127 -10 160q-20 66 -77.5 99.5t-129.5 33.5q-111 0 -184 -74q-33 -33 -50.5 -75t-19.5 -68.5t-2 -73.5v-551h-164v965z" />
<glyph unicode="o" horiz-adv-x="1110" d="M900 115q-126 -143 -343 -144q-236 0 -355.5 147.5t-119.5 356.5q0 88 23.5 173t74.5 166t150.5 131t232.5 50q227 0 347 -148q118 -146 118 -356q0 -230 -128 -376zM850 483v22q0 63 -10 113q-25 131 -100.5 188.5t-172.5 57.5q-156 0 -231.5 -107.5t-75.5 -283.5 q0 -164 73 -267.5t222 -103.5q94 0 158.5 43t91 114t35 121t10.5 103z" />
<glyph unicode="p" horiz-adv-x="1150" d="M131 -457v1422h162v-138q59 68 90 88q115 80 254 80q172 0 303 -135t131 -379q0 -219 -116.5 -364.5t-336.5 -145.5q-209 0 -325 144v-572h-162zM590 842q-139 -4 -218 -106.5t-79 -268.5q0 -160 79 -256t222 -96q102 0 170 43q53 35 96 115.5t43 209.5q0 170 -86 268 q-81 92 -211 91h-16z" />
<glyph unicode="q" horiz-adv-x="1150" d="M852 965h166v-1424h-166v576q-41 -53 -92 -84q-100 -61 -242 -62q-211 0 -324.5 138.5t-113.5 359.5q0 248 123 385q125 141 319 141q78 0 146 -26q115 -45 184 -148v144zM561 844q-76 0 -137 -29q-164 -78 -164 -336q0 -172 68 -266q82 -111 231.5 -111t233.5 103 q72 88 71 246q0 178 -81 284.5t-222 108.5z" />
<glyph unicode="r" horiz-adv-x="641" d="M133 965h164v-177q92 180 332 189v-176q-41 4 -68 4q-154 0 -223 -115q-41 -68 -41 -244v-446h-164v965z" />
<glyph unicode="s" horiz-adv-x="980" d="M543 408l-92 18q-55 12 -82 19.5t-76 24.5t-76 35.5t-56.5 46.5t-43 66.5t-13.5 88.5q0 131 102.5 208.5t270.5 77.5q154 0 272.5 -77.5t141.5 -237.5l-176 -23q-2 37 -5 57.5t-18.5 48t-46.5 50.5q-74 57 -186 57q-88 0 -139.5 -43t-51.5 -98q0 -43 35 -73.5t77 -45 t120 -33.5l92 -22q49 -12 78.5 -20.5t82 -31t82 -49t54 -73.5t24.5 -105q0 -127 -107.5 -216t-298 -89t-298.5 78q-123 90 -143 262l184 29q0 -9 -1 -17q0 -108 73 -171q63 -55 194 -56q109 0 168 41t59 119q0 76 -47 105t-153 49z" />
<glyph unicode="t" horiz-adv-x="598" d="M356 1270v-305h176v-136h-176v-553q0 -98 10.5 -130.5t59.5 -32.5q35 0 106 22v-135q-115 -16 -157 -16q-68 0 -109 14t-56 50t-18.5 64.5t-3.5 90.5v626h-153v136h153v305h168z" />
<glyph unicode="u" d="M133 399v566h162v-551q0 -109 4 -133q20 -152 193 -152q143 0 217 92q29 33 42 76t15 78t2 106v484h162v-965h-162v147q-129 -172 -330 -172q-154 0 -235 99q-47 55 -58.5 119.5t-11.5 205.5z" />
<glyph unicode="v" horiz-adv-x="894" d="M451 225l254 740h167l-348 -965h-147l-352 965h170z" />
<glyph unicode="w" horiz-adv-x="1492" d="M678 965h141l230 -717l251 717h173l-355 -965h-143l-232 719l-235 -719h-150l-335 965h176l241 -717z" />
<glyph unicode="x" horiz-adv-x="811" d="M414 633l194 332h185l-291 -476l291 -489h-185l-205 344l-200 -344h-187l301 489l-284 476h188z" />
<glyph unicode="y" horiz-adv-x="894" d="M700 965h170l-405 -1141q-59 -168 -115.5 -234.5t-181.5 -66.5q-74 0 -150 22v146q59 -16 105 -17q82 0 116.5 43t75.5 160l41 117l-327 971h174l241 -766z" />
<glyph unicode="z" horiz-adv-x="854" d="M78 965h706v-131l-559 -699h572v-135h-770v135l555 688h-504v142z" />
<glyph unicode="{" horiz-adv-x="724" d="M139 614v82q33 10 48.5 16.5t36 27t36.5 55.5q25 55 25 231v113q2 145 15 214.5t60 121.5q51 55 108.5 70.5t197.5 21.5v-82q-33 -8 -45.5 -12.5t-41 -16.5t-49 -31.5t-34.5 -46.5q-33 -55 -35 -237v-21q0 -123 -2 -186q-4 -141 -46 -196.5t-130 -84.5q92 -35 133 -90 t45 -182q2 -57 2 -172v-45q2 -166 35.5 -234.5t167.5 -105.5v-82q-121 4 -187.5 19.5t-113.5 64.5q-37 39 -56.5 101.5t-21.5 104.5t0 109v119q0 182 -23 240q-14 37 -37.5 61.5t-40 32.5t-47.5 20z" />
<glyph unicode="|" horiz-adv-x="468" d="M315 1536v-2048h-163v2048h163z" />
<glyph unicode="}" horiz-adv-x="724" d="M586 694v-82q-33 -10 -48.5 -16t-36 -26.5t-36.5 -55.5q-25 -55 -25 -231v-113q-2 -145 -15 -215t-60 -121q-51 -55 -108.5 -70.5t-197.5 -21.5v82q33 8 45.5 12t41 16.5t49 32t34.5 45.5q33 55 35 238v20q0 123 2 187q4 141 46 196.5t130 83.5q-92 35 -133 90.5 t-45 182.5q-2 57 -2 172v45q-2 166 -35.5 234.5t-167.5 105.5v82q121 -4 187.5 -19.5t113.5 -64.5q37 -39 56.5 -101.5t21.5 -104.5t0 -110v-118q0 -184 23 -240q14 -37 37.5 -61.5t40 -33t47.5 -20.5z" />
<glyph unicode="~" horiz-adv-x="1366" d="M1098 750l78 -146q-127 -164 -281 -164q-63 0 -207 66q-156 78 -221 78q-55 0 -89 -26t-106 -112l-82 146q115 172 273 172q84 0 227 -68l68 -30q98 -43 143 -43q101 0 197 127z" />
<glyph unicode="&#xa1;" horiz-adv-x="555" d="M319 567v-567h-161v590l49 555h63zM319 1446v-184h-161v184h161z" />
<glyph unicode="&#xa2;" horiz-adv-x="1024" d="M473 985v199h123v-199q109 -12 184 -57q135 -84 189 -264l-183 -19q-6 57 -27.5 98t-56 63.5t-55 31t-51.5 16.5v-745q80 14 127 55q76 66 88 205l178 -17q-27 -115 -67 -182q-35 -59 -80 -100t-95.5 -59.5t-80 -24.5t-72.5 -11v-211h-121v211q-158 27 -250 109 q-76 66 -121 172t-45 231q0 264 183 406q92 69 233 92zM473 111v745q-242 -63 -242 -369q0 -109 27 -186.5t73 -115.5t74.5 -51t67.5 -23z" />
<glyph unicode="&#xa3;" horiz-adv-x="1366" d="M1026 578h-356q43 -133 43 -191q0 -76 -23 -158q137 -84 254 -84q84 0 140.5 54.5t60.5 167.5l192 -15q-6 -49 -21.5 -102t-50 -121t-105 -111t-167.5 -43q-123 0 -272 64l-107 49q-57 -45 -79 -57q-94 -61 -209 -62q-100 0 -166 53.5t-66 135.5q0 74 57.5 127t163.5 53 q92 0 209 -37q2 14 2 33q0 111 -90 244h-362v133h268l-65.5 115.5t-41 103t-18.5 123.5q0 197 162 313.5t375 116.5q209 0 353 -120t153 -339l-213 -23l2 37q0 131 -83 214t-225 83q-121 0 -212 -66.5t-91 -195.5q0 -121 86 -252l72 -110h430v-133zM465 160q-104 35 -141 35 q-35 0 -51.5 -17.5t-16.5 -34t16.5 -33t49.5 -16.5q73 0 143 66z" />
<glyph unicode="&#xa4;" horiz-adv-x="1366" d="M1278 1167l-154 -153q37 -57 53.5 -89t33 -92.5t16.5 -132.5q0 -78 -16.5 -141t-34 -95t-54.5 -89l156 -158l-125 -121l-154 156q-59 -37 -90.5 -53.5t-92 -32.5t-132.5 -16q-76 0 -138.5 16t-94 33.5t-86.5 54.5l-156 -156l-123 123l156 154q-37 57 -54.5 89t-34 95.5 t-16.5 138.5q0 162 105 316l-154 153l123 123l154 -153q152 104 321 104q72 0 132.5 -16.5t93 -33.5t89.5 -54l154 153zM1063 696q2 172 -112.5 278.5t-264.5 106.5q-162 0 -273.5 -109.5t-111.5 -273.5q0 -172 113.5 -280.5t267.5 -108.5q158 0 268.5 107.5t112.5 279.5z " />
<glyph unicode="&#xa5;" horiz-adv-x="1280" d="M637 799l387 587h227l-350 -505h229v-148h-325l-78 -106h403v-148h-399v-479h-192v479h-398v146h400l-68 106h-332v146h234l-346 509h229z" />
<glyph unicode="&#xa6;" horiz-adv-x="468" d="M152 -358v716h163v-716h-163zM315 666h-163v716h163v-716z" />
<glyph unicode="&#xa7;" horiz-adv-x="1280" d="M1108 1427l-84 -143q-240 145 -420 146q-98 0 -165.5 -39t-67.5 -107q0 -43 30.5 -75.5t58 -45t83.5 -33.5l151 -57q211 -70 340 -160q172 -123 172 -307q0 -106 -56 -190t-136 -129q102 -86 102 -207q0 -125 -115.5 -227.5t-304.5 -102.5q-94 0 -202 31 q-158 43 -332 133l80 154q236 -156 460 -156q104 0 157.5 42t53.5 103q0 35 -14 62.5t-47 48t-56.5 32t-70.5 29.5l-131 58q-223 84 -358 184q-160 119 -160 287q0 63 19.5 116.5t57 94.5t58 59.5t57.5 44.5q-84 88 -84 180q0 123 108.5 224.5t315.5 101.5q197 0 500 -152z M563 934l-131 51q-53 -20 -111.5 -74.5t-58.5 -132.5q0 -94 85 -154.5t327 -168.5l176 -80q72 25 125 84t53 129q0 88 -74.5 150.5t-205.5 117.5z" />
<glyph unicode="&#xa8;" horiz-adv-x="555" d="M-14 1319h178v-211h-178v211zM389 1319h180v-211h-180v211z" />
<glyph unicode="&#xa9;" horiz-adv-x="1705" d="M1583 721q0 -213 -117 -402q-92 -143 -254.5 -234t-359.5 -91q-188 0 -354 90t-269.5 260t-103.5 379q0 307 213 518t518 211q307 0 517 -211t210 -520zM1518 721q4 272 -185.5 468.5t-474.5 196.5q-279 0 -473.5 -192.5t-194.5 -472.5q0 -272 192.5 -467t475.5 -195 q174 0 323.5 82t242 236t94.5 344zM1143 528l114 -100q-160 -186 -391 -186q-207 0 -344 137t-137 346q0 205 136 346t345 141q227 0 391 -184l-114 -106q-37 39 -61.5 60.5t-85 49t-126.5 27.5q-137 0 -231 -93.5t-94 -240.5q0 -145 96 -237.5t227 -92.5q70 0 130.5 27 t85 48t59.5 58z" />
<glyph unicode="&#xaa;" horiz-adv-x="641" d="M537 1268v-234q2 -25 4 -37t12 -23t29 -11q16 0 30 10v-94q-37 -12 -61 -13q-78 0 -111 76q-27 -27 -44 -40t-57 -28.5t-91 -15.5q-86 0 -136.5 45t-50.5 117q0 43 14.5 75.5t45.5 53t60.5 34t80.5 20.5t84 10.5t88 7.5q0 37 -1 58t-11 50t-36 43t-67 14 q-125 0 -118 -120l-113 6q4 33 11 56.5t27.5 60t70 58t120.5 21.5q94 0 152 -45q29 -23 44 -52.5t18.5 -46.5t5.5 -56zM434 1147q-115 -16 -173 -36.5t-69.5 -37t-11.5 -47.5q0 -45 32 -63.5t67 -18.5q84 0 129 62q30 41 26 141z" />
<glyph unicode="&#xab;" horiz-adv-x="811" d="M684 465v-184l-276 231v174l276 240v-185l-160 -137zM362 465v-184l-276 231v174l276 240v-185l-159 -137z" />
<glyph unicode="&#xac;" horiz-adv-x="1366" d="M1202 0v516h-1202v164h1366v-680h-164z" />
<glyph unicode="&#xad;" horiz-adv-x="598" d="M92 682h414v-156h-414v156z" />
<glyph unicode="&#xae;" horiz-adv-x="1705" d="M545 1188h299q152 0 215 -23q72 -25 109.5 -84t37.5 -129q0 -170 -188 -219q59 -27 88 -65.5t43 -126.5q16 -115 28.5 -165t41.5 -108h-187q-20 37 -37 127q-2 10 -11 70.5t-11 71.5q-16 90 -61.5 115.5t-145.5 27.5h-57v-412h-164v920zM711 1061v-250h135q39 0 61.5 2 t59.5 12.5t56 39t19 73.5q0 80 -65 109q-33 14 -162 14h-104zM1583 719q-2 -303 -213 -514t-518 -211q-293 0 -510 207t-217 520q0 311 214 521t513 210q313 0 523 -215t208 -518zM1518 718.5q2 276.5 -189.5 472t-472.5 195.5t-473.5 -194.5t-192.5 -471t195 -469 t469 -192.5q279 0 470.5 191.5t193.5 468z" />
<glyph unicode="&#xaf;" horiz-adv-x="555" d="M-12 1108v139h581v-139h-581z" />
<glyph unicode="&#xb0;" horiz-adv-x="724" d="M33 1218.5q0 137.5 96 233.5t233.5 96t233.5 -96t96 -233.5t-96 -233.5t-233.5 -96t-233.5 96t-96 233.5zM201 1218.5q0 -67.5 47 -114.5t114.5 -47t114.5 47t47 114.5t-47 114.5t-114.5 47t-114.5 -47t-47 -114.5z" />
<glyph unicode="&#xb1;" horiz-adv-x="1366" d="M766 772v-498h-162v498h-520v162h520v496h162v-496h514v-162h-514zM1280 162v-162h-1196v162h1196z" />
<glyph unicode="&#xb2;" horiz-adv-x="768" d="M236 997h-136q-12 61 -12 109q0 133 83 213t218 80q137 0 217 -81t80 -204q0 -131 -111 -266q-98 -119 -305 -256h426v-115h-608v125q180 102 322.5 244.5t142.5 271.5q0 70 -46 117t-126 47q-76 0 -119 -47t-43 -131q1 -50 17 -107z" />
<glyph unicode="&#xb3;" horiz-adv-x="768" d="M205 1067l-133 4q4 104 28 160q72 168 279 168q131 0 221 -72t90 -194q0 -49 -15.5 -85t-43 -56.5t-45 -29t-43.5 -16.5q31 -8 51 -16t53 -29.5t51.5 -64.5t18.5 -105q0 -109 -76 -190.5t-246 -81.5q-336 0 -352 311h137q0 -25 2 -41t13.5 -48t32 -51.5t61.5 -35.5 t96 -16q190 0 190 155q0 53 -18 86t-55 44t-63.5 14.5t-71.5 1.5h-52v118h66q84 4 123 35q49 37 49 103q0 63 -48 105t-126 42q-45 0 -79 -15.5t-50.5 -34t-26.5 -54t-13 -55t-5 -56.5z" />
<glyph unicode="&#xb4;" horiz-adv-x="555" d="M231 1364h177l-177 -295h-84z" />
<glyph unicode="&#xb5;" d="M133 -459v1422h162v-543q2 -41 4 -66.5t16.5 -74t37 -77t67.5 -51t108 -22.5q115 0 185 90q55 74 55 219v525h162v-963h-162v147q-94 -172 -256 -172q-51 0 -97 21.5t-66 40.5l-54 53v-549h-162z" />
<glyph unicode="&#xb6;" horiz-adv-x="1366" d="M633 1446h471v-111h-70v-1675h-119v1675h-297v-1675h-116v993q-139 23 -219 107q-104 104 -105 276q0 125 62 226q39 61 90 101t112.5 56.5t98.5 20.5t92 6z" />
<glyph unicode="&#xb7;" horiz-adv-x="468" d="M131 721h203v-229h-203v229z" />
<glyph unicode="&#xb8;" horiz-adv-x="555" d="M287 33l61 -17l-61 -106l53 -27q31 -16 52.5 -50t21.5 -73q0 -74 -62 -122q-53 -41 -196 -54v45q31 -2 52 5.5t31.5 16.5t15.5 22.5t6 18.5t1 11q0 53 -63 78l-60 20z" />
<glyph unicode="&#xb9;" horiz-adv-x="768" d="M164 1147v92q98 8 147 39t66 123h100v-924h-137v670h-176z" />
<glyph unicode="&#xba;" horiz-adv-x="681" d="M55 1149q-2 147 79 232t210 85q131 0 208 -90t77 -219q0 -123 -74 -213t-213 -90q-125 0 -205 80t-82 215zM170 1157q0 -86 41 -149.5t133 -63.5q84 0 126 59.5t42 157.5q0 94 -46 153.5t-128 59.5q-94 0 -131 -67.5t-37 -149.5z" />
<glyph unicode="&#xbb;" horiz-adv-x="811" d="M127 741v185l276 -232v-174l-276 -239v184l160 137zM449 741v185l276 -232v-174l-276 -239v184l159 137z" />
<glyph unicode="&#xbc;" horiz-adv-x="1792" d="M164 1147v92q98 8 147 39t66 123h100v-926h-137v672h-176zM1159 1397l111 -54l-649 -1400l-115 51zM1069 340l438 584h109v-588h131v-113h-133v-223h-129v223h-416v117zM1206 338h281l4 391z" />
<glyph unicode="&#xbd;" horiz-adv-x="1792" d="M164 1147v92q98 8 147 39t66 123h100v-926h-137v672h-176zM1112 1397l111 -54l-652 -1400l-112 51zM1262 520h-136q-12 61 -12 107q0 137 84 216t219 79t215 -81t80 -204q0 -131 -110 -266q-98 -119 -306 -256h426v-115h-608v125q180 102 322.5 245.5t142.5 270.5 q0 66 -43 115t-127 49q-82 0 -123 -49t-41 -129q1 -50 17 -107z" />
<glyph unicode="&#xbe;" horiz-adv-x="1792" d="M205 1067l-133 4q4 104 28 160q72 168 279 168q131 0 221 -72t90 -194q0 -49 -15.5 -85t-43 -56.5t-45 -29t-43.5 -16.5q31 -8 51 -16t53 -29.5t51.5 -64.5t18.5 -105q0 -109 -76 -190.5t-246 -81.5q-336 0 -352 311h137q0 -25 2 -41t13.5 -48t32 -51.5t61.5 -35.5 t96 -16q190 0 190 155q0 63 -31.5 98t-64.5 41.5t-84 6.5h-80v118h66q78 0 123 35q49 37 49 103q0 63 -48 105t-126 42q-45 0 -79 -15.5t-50.5 -34t-26.5 -54t-13 -55t-5 -56.5zM1247 1397l111 -54l-649 -1400l-113 51zM1069 340l438 582h109v-586h131v-113h-133v-223h-129 v223h-416v117zM1204 338h283l4 391z" />
<glyph unicode="&#xbf;" horiz-adv-x="1150" d="M463 827v312h162v-486q-59 2 -133 -4q-84 -12 -130 -35q-119 -68 -118 -204q0 -115 85 -192t222 -77q203 0 260 172q20 68 16 162h179q2 -127 -38 -224t-108.5 -152.5t-147.5 -83t-163 -27.5q-199 0 -336 127t-137 315q0 37 7 77t31.5 96t63.5 100.5t114 80t171 43.5z M637 1247h-182v199h182v-199z" />
<glyph unicode="&#xc0;" horiz-adv-x="1323" d="M1096 0l-158 442h-551l-162 -442h-205l551 1446h201l526 -1446h-202zM449 604h432l-211 602zM449 1833h202l97 -254h-123z" />
<glyph unicode="&#xc1;" horiz-adv-x="1323" d="M1096 0l-158 442h-551l-162 -442h-205l551 1446h201l526 -1446h-202zM449 604h432l-211 602zM674 1833h203l-179 -254h-123z" />
<glyph unicode="&#xc2;" horiz-adv-x="1323" d="M1096 0l-158 442h-551l-162 -442h-205l551 1446h201l526 -1446h-202zM449 604h432l-211 602zM539 1579h-152l205 254h133l219 -254h-158l-127 152z" />
<glyph unicode="&#xc3;" horiz-adv-x="1323" d="M1096 0l-158 442h-551l-162 -442h-205l551 1446h201l526 -1446h-202zM449 604h432l-211 602zM864 1808h97q-37 -207 -170 -206q-49 0 -136 34q-98 37 -125 37q-53 0 -67 -63h-98q4 29 11 56.5t25.5 64t55.5 59t86 22.5q33 0 125 -30q92 -39 129 -39q51 -1 67 65z" />
<glyph unicode="&#xc4;" horiz-adv-x="1323" d="M1096 0l-158 442h-551l-162 -442h-205l551 1446h201l526 -1446h-202zM449 604h432l-211 602zM379 1808h178v-209h-178v209zM780 1808h178v-209h-178v209z" />
<glyph unicode="&#xc5;" horiz-adv-x="1323" d="M1096 0l-158 442h-551l-162 -442h-205l551 1446h201l526 -1446h-202zM449 604h432l-211 602zM670 1933q82 0 139 -56t57 -138t-57 -139.5t-139 -57.5q-80 0 -137.5 57.5t-57.5 139.5q0 80 57.5 137t137.5 57zM672 1843q-45 0 -75 -30.5t-30 -73.5t30 -74t75 -31 q41 0 71.5 31t30.5 74t-30.5 73.5t-71.5 30.5z" />
<glyph unicode="&#xc6;" horiz-adv-x="2134" d="M1243 639v-471h834v-168h-1026v477h-516l-314 -477h-227l989 1446h1067v-172h-807v-471h651v-164h-651zM647 641h404v616z" />
<glyph unicode="&#xc7;" horiz-adv-x="1536" d="M1311 549l209 -25q-57 -258 -263 -415q-70 -53 -143.5 -84t-120.5 -39.5t-131 -16.5l-33 -57l54 -27q31 -16 52 -50t21 -73q0 -74 -61 -122q-53 -41 -197 -54v43q31 -2 52.5 5.5t32 16.5t15.5 22.5t6 18.5t1 11q0 53 -66 78l-57 22l104 162q-117 12 -178 23.5 t-155.5 59.5t-167.5 134q-184 211 -185 541q0 328 189.5 544t546.5 216q496 0 655 -443l-195 -41q-37 104 -86 162q-135 168 -376 168q-258 0 -400 -182q-121 -150 -121 -414q0 -276 135.5 -443t380.5 -167q178 0 313.5 105.5t168.5 320.5z" />
<glyph unicode="&#xc8;" horiz-adv-x="1236" d="M1051 659h-705v-491h836v-168h-1022v1446h997v-170h-811v-447h705v-170zM426 1833h203l96 -254h-123z" />
<glyph unicode="&#xc9;" horiz-adv-x="1236" d="M1051 659h-705v-491h836v-168h-1022v1446h997v-170h-811v-447h705v-170zM651 1833h203l-178 -254h-123z" />
<glyph unicode="&#xca;" horiz-adv-x="1236" d="M1051 659h-705v-491h836v-168h-1022v1446h997v-170h-811v-447h705v-170zM528 1579h-151l205 254h133l219 -254h-158l-127 152z" />
<glyph unicode="&#xcb;" horiz-adv-x="1236" d="M1051 659h-705v-491h836v-168h-1022v1446h997v-170h-811v-447h705v-170zM362 1808h179v-209h-179v209zM764 1808h178v-209h-178v209z" />
<glyph unicode="&#xcc;" horiz-adv-x="468" d="M137 1446h195v-1446h-195v1446zM23 1833h202l97 -254h-123z" />
<glyph unicode="&#xcd;" horiz-adv-x="468" d="M137 1446h195v-1446h-195v1446zM248 1833h203l-179 -254h-122z" />
<glyph unicode="&#xce;" horiz-adv-x="468" d="M137 1446h195v-1446h-195v1446zM113 1579h-152l205 254h133l219 -254h-158l-127 152z" />
<glyph unicode="&#xcf;" horiz-adv-x="468" d="M137 1446h195v-1446h-195v1446zM-53 1808h178v-209h-178v209zM348 1808h178v-209h-178v209z" />
<glyph unicode="&#xd0;" horiz-adv-x="1449" d="M160 819v627h452q100 0 153.5 -3t133.5 -18.5t144.5 -54.5t123.5 -102q180 -193 181 -545q0 -379 -203 -569q-59 -53 -126 -88t-138.5 -47.5t-114.5 -15.5t-109 -3h-497v698h-135v121h135zM584 1276h-228v-457h346v-121h-346v-532h256q199 4 283 39q256 109 256 516 q0 436 -301 530q-80 25 -266 25z" />
<glyph unicode="&#xd1;" horiz-adv-x="1449" d="M1116 1446h174v-1446h-174l-792 1176l16 -1176h-180v1446h180l784 -1159zM928 1808h96q-37 -207 -170 -206q-47 0 -135 34q-98 37 -125 37q-53 0 -68 -63h-98q4 29 11 56.5t25.5 64t55.5 59t86 22.5q33 0 125 -30q92 -39 129 -39q52 -1 68 65z" />
<glyph unicode="&#xd2;" horiz-adv-x="1662" d="M1561 737q0 -340 -192.5 -557t-541.5 -217q-328 0 -525.5 210t-197.5 550q0 193 62.5 343.5t168 238.5t232.5 133t267 45q313 0 520 -201t207 -545zM1352 735q-2 268 -137.5 430t-380.5 162q-258 0 -389.5 -171t-131.5 -435q0 -252 131 -429t392 -177q139 0 243.5 54 t161.5 145.5t84 196.5t27 224zM618 1833h203l97 -254h-123z" />
<glyph unicode="&#xd3;" horiz-adv-x="1662" d="M1561 737q0 -340 -192.5 -557t-541.5 -217q-328 0 -525.5 210t-197.5 550q0 193 62.5 343.5t168 238.5t232.5 133t267 45q313 0 520 -201t207 -545zM1352 735q-2 268 -137.5 430t-380.5 162q-258 0 -389.5 -171t-131.5 -435q0 -252 131 -429t392 -177q139 0 243.5 54 t161.5 145.5t84 196.5t27 224zM844 1833h203l-179 -254h-123z" />
<glyph unicode="&#xd4;" horiz-adv-x="1662" d="M1561 737q0 -340 -192.5 -557t-541.5 -217q-328 0 -525.5 210t-197.5 550q0 193 62.5 343.5t168 238.5t232.5 133t267 45q313 0 520 -201t207 -545zM1352 735q-2 268 -137.5 430t-380.5 162q-258 0 -389.5 -171t-131.5 -435q0 -252 131 -429t392 -177q139 0 243.5 54 t161.5 145.5t84 196.5t27 224zM709 1579h-152l205 254h133l219 -254h-158l-127 152z" />
<glyph unicode="&#xd5;" horiz-adv-x="1662" d="M1561 737q0 -340 -192.5 -557t-541.5 -217q-328 0 -525.5 210t-197.5 550q0 193 62.5 343.5t168 238.5t232.5 133t267 45q313 0 520 -201t207 -545zM1352 735q-2 268 -137.5 430t-380.5 162q-258 0 -389.5 -171t-131.5 -435q0 -252 131 -429t392 -177q139 0 243.5 54 t161.5 145.5t84 196.5t27 224zM1034 1808h96q-37 -207 -169 -206q-47 0 -136 34q-98 37 -125 37q-53 0 -67 -63h-98q4 29 11 56.5t25.5 64t55.5 59t86 22.5q33 0 125 -30q92 -39 129 -39q51 -1 67 65z" />
<glyph unicode="&#xd6;" horiz-adv-x="1662" d="M1561 737q0 -340 -192.5 -557t-541.5 -217q-328 0 -525.5 210t-197.5 550q0 193 62.5 343.5t168 238.5t232.5 133t267 45q313 0 520 -201t207 -545zM1352 735q-2 268 -137.5 430t-380.5 162q-258 0 -389.5 -171t-131.5 -435q0 -252 131 -429t392 -177q139 0 243.5 54 t161.5 145.5t84 196.5t27 224zM551 1808h178v-209h-178v209zM952 1808h178v-209h-178v209z" />
<glyph unicode="&#xd7;" horiz-adv-x="1366" d="M1208 188l-114 -114l-410 409l-414 -409l-112 114l411 410l-411 412l112 114l414 -411l410 411l114 -114l-409 -412z" />
<glyph unicode="&#xd8;" horiz-adv-x="1662" d="M1325 1298l139 134l99 -105l-146 -137q145 -219 146 -463q0 -135 -45 -266t-132.5 -245t-234.5 -183.5t-332 -69.5q-164 0 -272.5 47t-216.5 133l-133 -127l-101 105l142 135q-135 219 -136 467q0 137 43 268t127 243t228.5 180.5t326.5 68.5q164 0 276.5 -48.5 t221.5 -136.5zM381 393l809 776q-152 160 -367 160q-242 0 -375 -171t-133 -443q0 -166 66 -322zM1272 1049l-813 -781q45 -45 85 -72.5t116.5 -54t170.5 -26.5q248 0 383.5 171t135.5 410q0 191 -78 353z" />
<glyph unicode="&#xd9;" horiz-adv-x="1409" d="M1057 1448h194v-924q-4 -133 -18 -188q-35 -152 -171 -261.5t-370 -109.5q-295 0 -444 193q-45 57 -66.5 125.5t-24.5 115.5t-3 152v897h194v-870q-2 -84 1 -130.5t20.5 -105.5t52.5 -102q90 -113 270 -113q131 0 223.5 61.5t122.5 178.5q14 57 19 215v866zM492 1833h202 l97 -254h-123z" />
<glyph unicode="&#xda;" horiz-adv-x="1409" d="M1057 1448h194v-924q-4 -133 -18 -188q-35 -152 -171 -261.5t-370 -109.5q-295 0 -444 193q-45 57 -66.5 125.5t-24.5 115.5t-3 152v897h194v-870q-2 -84 1 -130.5t20.5 -105.5t52.5 -102q90 -113 270 -113q131 0 223.5 61.5t122.5 178.5q14 57 19 215v866zM717 1833h203 l-179 -254h-123z" />
<glyph unicode="&#xdb;" horiz-adv-x="1409" d="M1057 1448h194v-924q-4 -133 -18 -188q-35 -152 -171 -261.5t-370 -109.5q-295 0 -444 193q-45 57 -66.5 125.5t-24.5 115.5t-3 152v897h194v-870q-2 -84 1 -130.5t20.5 -105.5t52.5 -102q90 -113 270 -113q131 0 223.5 61.5t122.5 178.5q14 57 19 215v866zM582 1579 h-152l205 254h133l219 -254h-158l-127 152z" />
<glyph unicode="&#xdc;" horiz-adv-x="1409" d="M1057 1448h194v-924q-4 -133 -18 -188q-35 -152 -171 -261.5t-370 -109.5q-295 0 -444 193q-45 57 -66.5 125.5t-24.5 115.5t-3 152v897h194v-870q-2 -84 1 -130.5t20.5 -105.5t52.5 -102q90 -113 270 -113q131 0 223.5 61.5t122.5 178.5q14 57 19 215v866zM414 1808h178 v-209h-178v209zM815 1808h178v-209h-178v209z" />
<glyph unicode="&#xdd;" horiz-adv-x="1280" d="M1251 1446l-520 -784v-662h-194v662l-510 784h229l379 -612l387 612h229zM651 1833h203l-178 -254h-123z" />
<glyph unicode="&#xde;" horiz-adv-x="1280" d="M760 348h-418v-348h-186v1446h186v-264h438q154 0 230 -25q123 -43 185 -147.5t62 -237.5t-65.5 -246.5t-200.5 -154.5q-71 -23 -231 -23zM342 1016v-498h403q70 0 104 2t76 17.5t72 46.5q70 70 70 192q0 121 -76 185q-66 55 -203 55h-446z" />
<glyph unicode="&#xdf;" horiz-adv-x="1110" d="M393 10v170q115 -43 201 -43q141 0 205.5 89t64.5 231q0 186 -133 270q-90 57 -321 57v162q43 -4 82 -4q82 0 138 21.5t81.5 57.5t36 65.5t10.5 60.5q0 88 -62.5 137t-158.5 49q-131 0 -193 -76q-33 -39 -41 -85t-10 -164v-1008h-162v1016q0 139 16 209q61 258 385 258 q184 0 287 -90t103 -240q0 -209 -185 -283q51 -6 97.5 -28.5t93.5 -64.5t74.5 -119.5t27.5 -182.5q0 -233 -98 -352q-121 -145 -344 -146q-97 0 -195 33z" />
<glyph unicode="&#xe0;" horiz-adv-x="1024" d="M555 565l154 13v24q0 43 -1 67.5t-12.5 68.5t-33 68.5t-65.5 44t-105 19.5q-59 0 -101.5 -17t-62 -38.5t-30.5 -54.5t-12 -50.5t-1 -41.5l-172 10q10 94 39 145q92 172 333 172q178 0 283 -82q39 -31 61.5 -66.5t31.5 -82.5t10 -81t1 -95v-314q2 -57 4.5 -79.5t17.5 -41 t48 -18.5q29 0 53 10v-141q-72 -16 -102 -16q-147 0 -168 143q-41 -41 -69.5 -66.5t-103.5 -58.5t-159 -33q-143 0 -235 77t-92 200q0 82 43 145q96 143 446 170zM711 473q-178 -29 -254 -45q-123 -27 -167 -71t-44 -103q0 -61 48 -102t134 -41q188 0 256 145q18 39 22.5 75 t4.5 142zM309 1362h180l84 -295h-96z" />
<glyph unicode="&#xe1;" horiz-adv-x="1024" d="M555 565l154 13v24q0 43 -1 67.5t-12.5 68.5t-33 68.5t-65.5 44t-105 19.5q-59 0 -101.5 -17t-62 -38.5t-30.5 -54.5t-12 -50.5t-1 -41.5l-172 10q10 94 39 145q92 172 333 172q178 0 283 -82q39 -31 61.5 -66.5t31.5 -82.5t10 -81t1 -95v-314q2 -57 4.5 -79.5t17.5 -41 t48 -18.5q29 0 53 10v-141q-72 -16 -102 -16q-147 0 -168 143q-41 -41 -69.5 -66.5t-103.5 -58.5t-159 -33q-143 0 -235 77t-92 200q0 82 43 145q96 143 446 170zM711 473q-178 -29 -254 -45q-123 -27 -167 -71t-44 -103q0 -61 48 -102t134 -41q188 0 256 145q18 39 22.5 75 t4.5 142zM551 1364h176l-176 -295h-84z" />
<glyph unicode="&#xe2;" horiz-adv-x="1024" d="M555 565l154 13v24q0 43 -1 67.5t-12.5 68.5t-33 68.5t-65.5 44t-105 19.5q-59 0 -101.5 -17t-62 -38.5t-30.5 -54.5t-12 -50.5t-1 -41.5l-172 10q10 94 39 145q92 172 333 172q178 0 283 -82q39 -31 61.5 -66.5t31.5 -82.5t10 -81t1 -95v-314q2 -57 4.5 -79.5t17.5 -41 t48 -18.5q29 0 53 10v-141q-72 -16 -102 -16q-147 0 -168 143q-41 -41 -69.5 -66.5t-103.5 -58.5t-159 -33q-143 0 -235 77t-92 200q0 82 43 145q96 143 446 170zM711 473q-178 -29 -254 -45q-123 -27 -167 -71t-44 -103q0 -61 48 -102t134 -41q188 0 256 145q18 39 22.5 75 t4.5 142zM393 1071h-143l192 309h138l213 -309h-154l-125 195z" />
<glyph unicode="&#xe3;" horiz-adv-x="1024" d="M555 565l154 13v24q0 43 -1 67.5t-12.5 68.5t-33 68.5t-65.5 44t-105 19.5q-59 0 -101.5 -17t-62 -38.5t-30.5 -54.5t-12 -50.5t-1 -41.5l-172 10q10 94 39 145q92 172 333 172q178 0 283 -82q39 -31 61.5 -66.5t31.5 -82.5t10 -81t1 -95v-314q2 -57 4.5 -79.5t17.5 -41 t48 -18.5q29 0 53 10v-141q-72 -16 -102 -16q-147 0 -168 143q-41 -41 -69.5 -66.5t-103.5 -58.5t-159 -33q-143 0 -235 77t-92 200q0 82 43 145q96 143 446 170zM711 473q-178 -29 -254 -45q-123 -27 -167 -71t-44 -103q0 -61 48 -102t134 -41q188 0 256 145q18 39 22.5 75 t4.5 142zM715 1300h98q-6 -41 -18.5 -80.5t-52.5 -81.5t-97 -42q-43 0 -135 32q-102 39 -127 39q-51 0 -68 -63h-100q6 43 18.5 81t54.5 80t105 42q41 0 150 -41q76 -29 108 -29q52 0 64 63z" />
<glyph unicode="&#xe4;" horiz-adv-x="1024" d="M555 565l154 13v24q0 43 -1 67.5t-12.5 68.5t-33 68.5t-65.5 44t-105 19.5q-59 0 -101.5 -17t-62 -38.5t-30.5 -54.5t-12 -50.5t-1 -41.5l-172 10q10 94 39 145q92 172 333 172q178 0 283 -82q39 -31 61.5 -66.5t31.5 -82.5t10 -81t1 -95v-314q2 -57 4.5 -79.5t17.5 -41 t48 -18.5q29 0 53 10v-141q-72 -16 -102 -16q-147 0 -168 143q-41 -41 -69.5 -66.5t-103.5 -58.5t-159 -33q-143 0 -235 77t-92 200q0 82 43 145q96 143 446 170zM711 473q-178 -29 -254 -45q-123 -27 -167 -71t-44 -103q0 -61 48 -102t134 -41q188 0 256 145q18 39 22.5 75 t4.5 142zM215 1319h178v-211h-178v211zM618 1319h181v-211h-181v211z" />
<glyph unicode="&#xe5;" horiz-adv-x="1024" d="M555 565l154 13v24q0 43 -1 67.5t-12.5 68.5t-33 68.5t-65.5 44t-105 19.5q-59 0 -101.5 -17t-62 -38.5t-30.5 -54.5t-12 -50.5t-1 -41.5l-172 10q10 94 39 145q92 172 333 172q178 0 283 -82q39 -31 61.5 -66.5t31.5 -82.5t10 -81t1 -95v-314q2 -57 4.5 -79.5t17.5 -41 t48 -18.5q29 0 53 10v-141q-72 -16 -102 -16q-147 0 -168 143q-41 -41 -69.5 -66.5t-103.5 -58.5t-159 -33q-143 0 -235 77t-92 200q0 82 43 145q96 143 446 170zM711 473q-178 -29 -254 -45q-123 -27 -167 -71t-44 -103q0 -61 48 -102t134 -41q188 0 256 145q18 39 22.5 75 t4.5 142zM311 1245q0 80 56.5 136.5t136.5 56.5t136 -56.5t56 -136.5t-56 -136t-136 -56t-136.5 56t-56.5 136zM399 1247q0 -43 31 -73.5t74 -30.5t73.5 30.5t30.5 73.5t-30.5 74t-73.5 31t-74 -31t-31 -74z" />
<glyph unicode="&#xe6;" horiz-adv-x="1662" d="M1409 307l170 -26q-14 -51 -44 -100.5t-79 -98.5t-129 -80t-176 -31q-82 0 -160 25q-125 47 -200 178q-158 -203 -394 -203q-154 0 -242.5 77t-88.5 194q0 162 157 252q78 45 170 54t340 9q0 72 -12 119q-16 74 -71.5 134t-155.5 60q-92 0 -146.5 -54t-58.5 -140l-174 12 q20 162 126.5 234.5t250.5 72.5q145 0 241 -73q41 -33 84 -97q35 45 64.5 74t103.5 62.5t164 33.5q213 0 338 -172q104 -139 110 -385h-702q0 -90 27 -159q33 -90 100.5 -133.5t151.5 -43.5q86 0 148 52.5t87 152.5zM893 557h530q-10 147 -93 225t-179 78q-102 0 -178 -83 t-80 -220zM731 438h-94q-111 0 -182 -12q-92 -18 -154.5 -61t-62.5 -115q0 -55 48 -102.5t144 -47.5q125 0 212 88t89 250z" />
<glyph unicode="&#xe7;" d="M834 365l176 -17q-16 -94 -54 -164q-106 -190 -358 -209l-35 -63l53 -27q31 -16 52.5 -50t21.5 -73q0 -74 -61 -122q-53 -41 -197 -54v43q31 -2 52.5 5.5t31.5 16.5t15.5 22.5t6.5 19.5t1 10q0 53 -64 78l-59 22l108 170q-51 6 -79.5 10.5t-74.5 18.5t-85 42t-78 71 q-127 141 -127 364q0 217 118.5 366.5t350.5 149.5q119 0 203 -34q80 -33 150.5 -108t90.5 -181l-182 -17q-4 27 -13.5 53.5t-35 69.5t-79.5 71t-130 28q-98 0 -162.5 -46.5t-90.5 -121t-33 -123.5t-7 -101q0 -180 79 -284.5t224 -104.5q66 0 117 22.5t76.5 50.5t44 73 t24 66.5t9.5 56.5z" />
<glyph unicode="&#xe8;" d="M823 319l166 -22q-113 -326 -436 -326q-217 0 -345 139.5t-128 381.5q0 131 43 231t113.5 157.5t149.5 86t161 28.5q147 0 265 -85t159 -257q18 -82 18 -196h-733q-4 -141 75 -252t236 -111q104 0 168.5 61.5t87.5 163.5zM260 573h551q-10 166 -98 231.5t-178 65.5 q-109 0 -185 -78t-90 -219zM338 1362h180l84 -295h-96z" />
<glyph unicode="&#xe9;" d="M823 319l166 -22q-113 -326 -436 -326q-217 0 -345 139.5t-128 381.5q0 131 43 231t113.5 157.5t149.5 86t161 28.5q147 0 265 -85t159 -257q18 -82 18 -196h-733q-4 -141 75 -252t236 -111q104 0 168.5 61.5t87.5 163.5zM260 573h551q-10 166 -98 231.5t-178 65.5 q-109 0 -185 -78t-90 -219zM571 1364h177l-177 -295h-84z" />
<glyph unicode="&#xea;" d="M823 319l166 -22q-113 -326 -436 -326q-217 0 -345 139.5t-128 381.5q0 131 43 231t113.5 157.5t149.5 86t161 28.5q147 0 265 -85t159 -257q18 -82 18 -196h-733q-4 -141 75 -252t236 -111q104 0 168.5 61.5t87.5 163.5zM260 573h551q-10 166 -98 231.5t-178 65.5 q-109 0 -185 -78t-90 -219zM412 1071h-144l193 309h137l213 -309h-154l-125 195z" />
<glyph unicode="&#xeb;" d="M823 319l166 -22q-113 -326 -436 -326q-217 0 -345 139.5t-128 381.5q0 131 43 231t113.5 157.5t149.5 86t161 28.5q147 0 265 -85t159 -257q18 -82 18 -196h-733q-4 -141 75 -252t236 -111q104 0 168.5 61.5t87.5 163.5zM260 573h551q-10 166 -98 231.5t-178 65.5 q-109 0 -185 -78t-90 -219zM266 1319h178v-211h-178v211zM670 1319h180v-211h-180v211z" />
<glyph unicode="&#xec;" horiz-adv-x="425" d="M137 965h158v-965h-158v965zM18 1362h181l84 -295h-97z" />
<glyph unicode="&#xed;" horiz-adv-x="425" d="M137 965h158v-965h-158v965zM240 1364h176l-176 -295h-84z" />
<glyph unicode="&#xee;" horiz-adv-x="425" d="M137 965h158v-965h-158v965zM92 1071h-143l192 309h138l213 -309h-154l-125 195z" />
<glyph unicode="&#xef;" horiz-adv-x="425" d="M137 965h158v-965h-158v965zM-76 1319h178v-211h-178v211zM328 1319h180v-211h-180v211z" />
<glyph unicode="&#xf0;" horiz-adv-x="1110" d="M983 1264l-152 -50q199 -317 199 -686q0 -260 -124 -408.5t-351 -148.5q-119 0 -210 39t-139 95.5t-78 131t-38 132t-8 112.5q0 244 134 379t335 135q154 0 240 -86q35 -35 34 -26q0 2 -19.5 59t-19.5 62q-20 59 -88 167l-362 -116l-39 90l340 112q-63 76 -148 154 l127 59q51 -43 154 -167l176 57zM852 483q2 76 -10 135q-27 133 -102.5 189.5t-170.5 56.5q-158 0 -232.5 -107.5t-74.5 -283.5q0 -164 73 -267.5t222 -103.5q94 0 158.5 43t91.5 114t35 121t10 103z" />
<glyph unicode="&#xf1;" d="M133 965h164v-142q98 172 301 172q104 0 194.5 -55t122.5 -166q16 -57 17 -199v-575h-162v549q0 127 -10 160q-20 66 -77.5 99.5t-129.5 33.5q-111 0 -184 -74q-33 -33 -50.5 -75t-19.5 -68.5t-2 -73.5v-551h-164v965zM733 1300h98q-6 -41 -18 -80.5t-52 -81.5t-97 -42 q-43 0 -136 32q-102 39 -127 39q-51 0 -67 -63h-101q6 43 18.5 81t54.5 80t106 42q41 0 149 -41q76 -29 109 -29q51 0 63 63z" />
<glyph unicode="&#xf2;" horiz-adv-x="1110" d="M1028 483q-2 -225 -128 -368.5t-343 -143.5q-236 0 -355.5 147.5t-119.5 356.5q0 88 23.5 173t74.5 166t150.5 131t232.5 50q227 0 347 -148.5t118 -363.5zM850 483q2 76 -10 135q-25 131 -100.5 188.5t-172.5 57.5q-156 0 -231.5 -107.5t-75.5 -283.5q0 -164 73 -267.5 t222 -103.5q94 0 158.5 43t91 114t35 121t10.5 103zM362 1362h181l84 -295h-97z" />
<glyph unicode="&#xf3;" horiz-adv-x="1110" d="M1028 483q-2 -225 -128 -368.5t-343 -143.5q-236 0 -355.5 147.5t-119.5 356.5q0 88 23.5 173t74.5 166t150.5 131t232.5 50q227 0 347 -148.5t118 -363.5zM850 483q2 76 -10 135q-25 131 -100.5 188.5t-172.5 57.5q-156 0 -231.5 -107.5t-75.5 -283.5q0 -164 73 -267.5 t222 -103.5q94 0 158.5 43t91 114t35 121t10.5 103zM584 1364h176l-176 -295h-84z" />
<glyph unicode="&#xf4;" horiz-adv-x="1110" d="M1028 483q-2 -225 -128 -368.5t-343 -143.5q-236 0 -355.5 147.5t-119.5 356.5q0 88 23.5 173t74.5 166t150.5 131t232.5 50q227 0 347 -148.5t118 -363.5zM850 483q2 76 -10 135q-25 131 -100.5 188.5t-172.5 57.5q-156 0 -231.5 -107.5t-75.5 -283.5q0 -164 73 -267.5 t222 -103.5q94 0 158.5 43t91 114t35 121t10.5 103zM436 1071h-143l192 309h138l213 -309h-154l-125 195z" />
<glyph unicode="&#xf5;" horiz-adv-x="1110" d="M1028 483q-2 -225 -128 -368.5t-343 -143.5q-236 0 -355.5 147.5t-119.5 356.5q0 88 23.5 173t74.5 166t150.5 131t232.5 50q227 0 347 -148.5t118 -363.5zM850 483q2 76 -10 135q-25 131 -100.5 188.5t-172.5 57.5q-156 0 -231.5 -107.5t-75.5 -283.5q0 -164 73 -267.5 t222 -103.5q94 0 158.5 43t91 114t35 121t10.5 103zM758 1300h98q-6 -41 -18.5 -80.5t-52.5 -81.5t-97 -42q-43 0 -135 32q-102 39 -127 39q-51 0 -68 -63h-100q6 43 18.5 81t54.5 80t105 42q41 0 150 -41q76 -29 108 -29q52 0 64 63z" />
<glyph unicode="&#xf6;" horiz-adv-x="1110" d="M1028 483q-2 -225 -128 -368.5t-343 -143.5q-236 0 -355.5 147.5t-119.5 356.5q0 88 23.5 173t74.5 166t150.5 131t232.5 50q227 0 347 -148.5t118 -363.5zM850 483q2 76 -10 135q-25 131 -100.5 188.5t-172.5 57.5q-156 0 -231.5 -107.5t-75.5 -283.5q0 -164 73 -267.5 t222 -103.5q94 0 158.5 43t91 114t35 121t10.5 103zM295 1319h178v-211h-178v211zM698 1319h181v-211h-181v211z" />
<glyph unicode="&#xf7;" horiz-adv-x="1366" d="M801 297q-2 -49 -35 -81t-82 -32q-47 0 -81 33t-34 80q0 51 35 84t82 33q51 0 84 -36t31 -81zM801 891q0 -45 -33 -80t-86 -35q-43 0 -78 32t-35 83q0 45 32 80t85 35t84 -35t31 -80zM1366 676v-162h-1366v162h1366z" />
<glyph unicode="&#xf8;" horiz-adv-x="1110" d="M874 870l91 91l71 -76l-94 -92q88 -125 88 -310q0 -215 -127 -363.5t-350 -148.5q-199 0 -322 131l-81 -82l-72 74l88 84q-82 150 -82 295q0 238 139 380t334 142q174 0 317 -125zM291 303l473 459q-102 102 -213 102q-123 0 -209 -99t-86 -267q0 -105 35 -195zM821 674 l-477 -461q92 -111 221 -111t213 102.5t84 266.5q0 115 -41 203z" />
<glyph unicode="&#xf9;" d="M133 399v566h162v-551q0 -109 4 -133q20 -152 193 -152q143 0 217 92q29 33 42 76t15 78t2 106v484h162v-965h-162v147q-129 -172 -330 -172q-154 0 -235 99q-47 55 -58.5 119.5t-11.5 205.5zM338 1362h180l84 -295h-96z" />
<glyph unicode="&#xfa;" d="M133 399v566h162v-551q0 -109 4 -133q20 -152 193 -152q143 0 217 92q29 33 42 76t15 78t2 106v484h162v-965h-162v147q-129 -172 -330 -172q-154 0 -235 99q-47 55 -58.5 119.5t-11.5 205.5zM559 1364h176l-176 -295h-84z" />
<glyph unicode="&#xfb;" d="M133 399v566h162v-551q0 -109 4 -133q20 -152 193 -152q143 0 217 92q29 33 42 76t15 78t2 106v484h162v-965h-162v147q-129 -172 -330 -172q-154 0 -235 99q-47 55 -58.5 119.5t-11.5 205.5zM412 1071h-144l193 309h137l213 -309h-154l-125 195z" />
<glyph unicode="&#xfc;" d="M133 399v566h162v-551q0 -109 4 -133q20 -152 193 -152q143 0 217 92q29 33 42 76t15 78t2 106v484h162v-965h-162v147q-129 -172 -330 -172q-154 0 -235 99q-47 55 -58.5 119.5t-11.5 205.5zM238 1319h178v-211h-178v211zM641 1319h180v-211h-180v211z" />
<glyph unicode="&#xfd;" horiz-adv-x="894" d="M700 965h170l-405 -1141q-59 -168 -115.5 -234.5t-181.5 -66.5q-74 0 -150 22v146q59 -16 105 -17q82 0 116.5 43t75.5 160l41 117l-327 971h174l241 -766zM485 1364h177l-177 -295h-84z" />
<glyph unicode="&#xfe;" horiz-adv-x="1150" d="M131 -457v1905h162v-621q57 63 90 88q111 80 254 80q172 0 303 -135t131 -379q0 -219 -116.5 -364.5t-336.5 -145.5q-209 0 -325 144v-572h-162zM590 842q-139 -4 -218 -106.5t-79 -268.5q0 -160 79 -256t222 -96q102 0 170 43q53 35 96 115.5t43 209.5q0 170 -86 267.5 t-227 91.5z" />
<glyph unicode="&#xff;" horiz-adv-x="894" d="M700 965h170l-405 -1141q-59 -168 -115.5 -234.5t-181.5 -66.5q-74 0 -150 22v146q59 -16 105 -17q82 0 116.5 43t75.5 160l41 117l-327 971h174l241 -766zM160 1319h178v-211h-178v211zM563 1319h180v-211h-180v211z" />
<glyph unicode="&#x152;" horiz-adv-x="2347" d="M1450 655v-487h842v-168h-1026v166q-197 -203 -475 -203q-313 0 -501 219t-188 545q0 330 190.5 543t518.5 213q281 0 455 -189v152h1003v-174h-819v-449h659v-168h-659zM1264 727q0 168 -29 270q-49 166 -167 251t-267 85q-217 0 -356.5 -164.5t-139.5 -445.5 q0 -274 139.5 -437t348.5 -163q164 0 282 94q189 152 189 510z" />
<glyph unicode="&#x153;" horiz-adv-x="1792" d="M1538 311l166 -22q-16 -51 -46 -99.5t-79 -101.5t-129 -85t-176 -32q-123 0 -219.5 53.5t-149.5 139.5q-125 -193 -356 -193q-197 0 -330 133.5t-133 376.5q0 250 137 382t334 132q215 0 348 -178q127 178 352 178q227 0 353 -174q100 -143 108 -383h-729 q0 -145 83 -240.5t216 -95.5q61 0 109.5 24t76 61.5t42 66t22.5 57.5zM991 561h547q-16 143 -93 223t-181.5 80t-182.5 -80t-90 -223zM825 477q2 180 -76.5 281.5t-203.5 101.5q-129 0 -207 -105.5t-78 -277.5q0 -174 79 -271t204 -97q123 0 202.5 94t79.5 274z" />
<glyph unicode="&#x178;" horiz-adv-x="1280" d="M1251 1446l-520 -784v-662h-194v662l-510 784h229l379 -612l387 612h229zM350 1808h178v-209h-178v209zM752 1808h178v-209h-178v209z" />
<glyph unicode="&#x2c6;" horiz-adv-x="555" d="M150 1071h-144l193 309h137l213 -309h-154l-125 195z" />
<glyph unicode="&#x2dc;" horiz-adv-x="555" d="M479 1300h99q-6 -41 -18.5 -80.5t-52.5 -81.5t-97 -42q-43 0 -136 32q-102 39 -127 39q-51 0 -67 -63h-100q6 43 18 81t54 80t106 42q41 0 149 -41q76 -29 109 -29q51 0 63 63z" />
<glyph unicode="&#x3bc;" d="M133 -459v1422h162v-543q2 -41 4 -66.5t16.5 -74t37 -77t67.5 -51t108 -22.5q115 0 185 90q55 74 55 219v525h162v-963h-162v147q-94 -172 -256 -172q-51 0 -97 21.5t-66 40.5l-54 53v-549h-162z" />
<glyph unicode="&#x2000;" horiz-adv-x="966" />
<glyph unicode="&#x2001;" horiz-adv-x="1933" />
<glyph unicode="&#x2002;" horiz-adv-x="966" />
<glyph unicode="&#x2003;" horiz-adv-x="1933" />
<glyph unicode="&#x2004;" horiz-adv-x="643" />
<glyph unicode="&#x2005;" horiz-adv-x="483" />
<glyph unicode="&#x2006;" horiz-adv-x="321" />
<glyph unicode="&#x2007;" horiz-adv-x="321" />
<glyph unicode="&#x2008;" horiz-adv-x="241" />
<glyph unicode="&#x2009;" horiz-adv-x="385" />
<glyph unicode="&#x200a;" horiz-adv-x="106" />
<glyph unicode="&#x2010;" horiz-adv-x="598" d="M92 682h414v-156h-414v156z" />
<glyph unicode="&#x2011;" horiz-adv-x="598" d="M92 682h414v-156h-414v156z" />
<glyph unicode="&#x2012;" horiz-adv-x="598" d="M92 682h414v-156h-414v156z" />
<glyph unicode="&#x2013;" horiz-adv-x="1193" d="M1108 684v-162h-1016v162h1016z" />
<glyph unicode="&#x2014;" horiz-adv-x="1280" d="M1192 684v-162h-1100v162h1100z" />
<glyph unicode="&#x2018;" horiz-adv-x="468" d="M332 901h-203v105q4 143 19.5 226t66.5 214h96q-57 -154 -67 -322h88v-223z" />
<glyph unicode="&#x2019;" horiz-adv-x="468" d="M129 1446h203v-107q-2 -141 -20.5 -228t-63.5 -210h-96q57 137 67 320h-90v225z" />
<glyph unicode="&#x201a;" horiz-adv-x="468" d="M129 223h203v-104q-2 -143 -19.5 -228.5t-64.5 -209.5h-96q57 150 67 319h-90v223z" />
<glyph unicode="&#x201c;" horiz-adv-x="768" d="M637 901h-203v105q4 141 19.5 225t66.5 215h94q-59 -156 -65 -322h88v-223zM332 901h-203v105q4 141 20.5 225t65.5 215h96q-57 -143 -67 -322h88v-223z" />
<glyph unicode="&#x201d;" horiz-adv-x="768" d="M129 1446h203v-107q-2 -143 -19.5 -228t-64.5 -210h-96q57 137 67 320h-90v225zM434 1446h203v-107q-2 -141 -19.5 -226t-66.5 -212h-94q57 164 65 320h-88v225z" />
<glyph unicode="&#x201e;" horiz-adv-x="768" d="M129 223h203v-104q-2 -143 -19.5 -228.5t-64.5 -209.5h-96q57 150 67 319h-90v223zM434 223h203v-104q-2 -141 -19.5 -226.5t-66.5 -211.5h-94q57 150 65 319h-88v223z" />
<glyph unicode="&#x2022;" horiz-adv-x="681" d="M76 723q0 111 77.5 188.5t188.5 77.5t188.5 -77.5t77.5 -188.5t-77.5 -188.5t-188.5 -77.5t-188.5 77.5t-77.5 188.5z" />
<glyph unicode="&#x2026;" horiz-adv-x="2048" d="M1606 231h202v-231h-202v231zM924 231h202v-231h-202v231zM242 231h202v-231h-202v231z" />
<glyph unicode="&#x202f;" horiz-adv-x="385" />
<glyph unicode="&#x2039;" horiz-adv-x="512" d="M373 465v-184l-277 231v174l277 240v-185l-160 -137z" />
<glyph unicode="&#x203a;" horiz-adv-x="512" d="M139 741v185l277 -232v-174l-277 -239v184l160 137z" />
<glyph unicode="&#x205f;" horiz-adv-x="483" />
<glyph unicode="&#x2122;" horiz-adv-x="1406" d="M1303 1446v-680h-117l4 420l6 139l-33 -115l-139 -444h-106l-138 444l-35 113l9 -137l4 -420h-115v680h162l170 -537l166 537h162zM371 1346v-580h-119v580h-219v100h553v-100h-215z" />
<glyph unicode="&#xe000;" horiz-adv-x="965" d="M0 965h965v-965h-965v965z" />
<glyph unicode="&#xfb01;" horiz-adv-x="980" d="M342 1133v-168h184v-136h-184v-829h-158v829h-161v136h161l2 198q0 37 3.5 60.5t16.5 68.5t37.5 73t74 50.5t118.5 22.5q33 0 119 -13v-127q-57 8 -88 9q-57 0 -87 -31t-34 -60.5t-4 -82.5zM696 1448h158v-188h-158v188zM696 965h158v-965h-158v965z" />
<glyph unicode="&#xfb02;" horiz-adv-x="980" d="M340 1133v-168h184v-136h-184v-829h-158v829h-162v136h162l2 198q0 274 250 275q33 0 119 -13v-127q-57 8 -88 9q-57 0 -87 -31t-34 -60.5t-4 -82.5zM690 1446h158v-1446h-158v1446z" />
<glyph unicode="&#xfb03;" horiz-adv-x="1536" d="M1251 1446h158v-189h-158v189zM1251 965h158v-965h-158v965zM897 1133v-168h182v-136h-182v-829h-158v829h-161v136h161l2 196q0 37 3.5 61.5t16.5 69.5t37.5 72t74 49.5t118.5 22.5q27 0 119 -13v-127q-61 8 -90 9q-43 0 -69.5 -14.5t-37 -45.5t-13.5 -52t-3 -60z M342 1133v-168h182v-136h-182v-829h-158v829h-161v136h161l2 196q0 37 3.5 61.5t16.5 69.5t37.5 72t74 49.5t118.5 22.5q27 0 119 -13v-127q-61 8 -90 9q-43 0 -69.5 -14.5t-37 -45.5t-13.5 -52t-3 -60z" />
<glyph unicode="&#xfb04;" horiz-adv-x="1536" d="M1245 1446h158v-1446h-158v1446zM897 1133v-168h182v-136h-182v-829h-158v829h-161v136h161l2 196q0 37 3.5 61.5t16.5 69.5t37.5 72t74 49.5t118.5 22.5q27 0 119 -13v-127q-61 8 -90 9q-43 0 -69.5 -14.5t-37 -45.5t-13.5 -52t-3 -60zM342 1133v-168h182v-136h-182 v-829h-158v829h-161v136h161l2 196q0 37 3.5 61.5t16.5 69.5t37.5 72t74 49.5t118.5 22.5q27 0 119 -13v-127q-61 8 -90 9q-43 0 -69.5 -14.5t-37 -45.5t-13.5 -52t-3 -60z" />
</font>
</defs>
</svg>
