<?xml version="1.0" standalone="no"?>
<!DOCTYPE svg PUBLIC "-//W3C//DTD SVG 1.1//EN" "http://www.w3.org/Graphics/SVG/1.1/DTD/svg11.dtd" >
<svg xmlns="http://www.w3.org/2000/svg">
<metadata></metadata>
<defs>
<font id="aaarghnormal" horiz-adv-x="629" >
<font-face units-per-em="1000" ascent="800" descent="-200" />
<missing-glyph horiz-adv-x="467" />
<glyph horiz-adv-x="1000" />
<glyph horiz-adv-x="1000" />
<glyph unicode="&#xd;" horiz-adv-x="467" />
<glyph unicode=" "  horiz-adv-x="467" />
<glyph unicode="&#x09;" horiz-adv-x="467" />
<glyph unicode="&#xa0;" horiz-adv-x="467" />
<glyph unicode="!" horiz-adv-x="262" d="M110 800v-651h50v651h-50zM99 60h70v-60h-70v60z" />
<glyph unicode="&#x22;" horiz-adv-x="257" d="M55 800v-111h52l8 111h-60zM145 800v-111h52l8 111h-60z" />
<glyph unicode="#" horiz-adv-x="650" d="M571 427v50h-118l77 321h-51l-77 -321h-118l77 321h-51l-77 -321h-150v-50h138l-21 -86h-117v-50h105l-70 -294h51l71 294h118l-71 -294h52l70 294h162v50h-150l21 86h129zM370 341h-118l20 86h118z" />
<glyph unicode="$" horiz-adv-x="511" d="M416 303q-34 37 -138 116v344q85 -10 147 -64v52q-67 50 -147 57v48h-49v-48q-144 -13 -175 -161q-4 -19 -4 -38q0 -71 59 -130q13 -13 49 -37q49 -32 71 -49v-355q-90 8 -183 70v-54q76 -60 183 -63v-53h49v55q154 19 179 156q5 28 5 49q0 56 -46 105zM102 606 q0 11 4 31q23 113 123 126v-308q-60 46 -80 65q-47 46 -47 86zM407 167q-26 -116 -129 -129v318q70 -55 97 -87q35 -41 35 -79q0 -9 -3 -23z" />
<glyph unicode="%" horiz-adv-x="612" d="M171 796q-43 0 -73.5 -30.5t-30.5 -73.5q0 -44 30.5 -74.5t73.5 -30.5t73.5 30.5t30.5 74.5q0 43 -30.5 73.5t-73.5 30.5zM171 631q-25 0 -43 17.5t-18 43.5q0 25 18 42.5t43 17.5t43 -17.5t18 -42.5q0 -26 -18 -43.5t-43 -17.5zM450 196q-44 0 -74.5 -30.5t-30.5 -74.5 q0 -43 30.5 -73.5t74.5 -30.5q43 0 73.5 30.5t30.5 73.5q0 44 -30.5 74.5t-73.5 30.5zM450 31q-26 0 -43.5 17.5t-17.5 42.5q0 26 17.5 43.5t43.5 17.5q25 0 42.5 -17.5t17.5 -43.5q0 -25 -17.5 -42.5t-42.5 -17.5zM176 -1l332 812h-54l-333 -812h55z" />
<glyph unicode="&#x26;" horiz-adv-x="727" d="M562 133l7 10q87 125 96 268h-50q-11 -98 -34 -156q-12 -30 -39 -68l-11 -16l-224 244l16 9q88 46 122 80q56 56 56 141q0 70 -47 119q-53 54 -140 54q-91 0 -149 -61q-52 -54 -52 -118q0 -52 25 -94q20 -34 84 -102l14 -14l-18 -9q-91 -43 -132 -94.5t-41 -122.5 q0 -77 50 -138q66 -81 195 -81q80 0 139 30q36 18 96 70l12 11l88 -94h62zM160 636q0 63 42.5 102t108.5 39q73 0 111 -43q32 -36 32 -94q0 -67 -42 -109q-34 -34 -124 -76l-10 -4l-14 15q-51 56 -67 78q-37 51 -37 92zM494 118q-39 -40 -67 -57q-60 -37 -133 -37 q-125 0 -176 86q-26 44 -26 91q0 63 39 105q36 39 125 78l10 4l238 -260z" />
<glyph unicode="'" horiz-adv-x="217" d="M78 800v-111h52l8 111h-60z" />
<glyph unicode="(" horiz-adv-x="338" d="M260 -35l-48 -16q-114 179 -122 508q3 96 16 182q32 206 111 327l43 -18q-111 -161 -118 -491q3 -97 15 -181q30 -203 103 -311z" />
<glyph unicode=")" horiz-adv-x="338" d="M90 -35l48 -16q114 179 122 508q-3 96 -16 182q-32 206 -111 327l-43 -18q111 -161 118 -491q-3 -97 -15 -181q-30 -203 -103 -311z" />
<glyph unicode="*" horiz-adv-x="315" d="M263 696l-15 46l-66 -21v72h-49v-68l-62 20l-15 -47l62 -20l-40 -55l39 -29l41 56l40 -55l40 28l-38 52z" />
<glyph unicode="+" horiz-adv-x="459" d="M404 291h-352v49h352v-49zM253 492v-352h-50v352h50z" />
<glyph unicode="," horiz-adv-x="210" d="M139 0l-50 1v-1h50zM69 70h70v-70v0q-1 -65 -74 -104l-18 41q42 23 42 63h-20v70z" />
<glyph unicode="-" horiz-adv-x="377" d="M322 291h-262v49h262v-49z" />
<glyph unicode="." horiz-adv-x="262" d="M95 70h70v-70h-70v70z" />
<glyph unicode="/" horiz-adv-x="429" d="M128 -3l220 917h-51l-220 -917h51z" />
<glyph unicode="0" horiz-adv-x="644" d="M317 591q-106 0 -186 -89t-80 -213q0 -140 73 -221t193 -81q125 0 195.5 79.5t70.5 222.5q0 124 -80 213t-186 89zM318 37q-97 0 -155 66q-61 69 -61 186q0 103 65.5 177.5t150.5 74.5t150 -74.5t65 -177.5q0 -115 -60 -183.5t-155 -68.5z" />
<glyph unicode="1" horiz-adv-x="364" d="M224 0v579h-51l-133 -92q16 -18 32 -38q1 1 101 71v-520h51z" />
<glyph unicode="2" horiz-adv-x="492" d="M118 437q6 55 44 87q33 27 79 27q45 0 80 -26q43 -32 43 -89q0 -72 -102 -178l-207 -216v-42h364v44q-19 5 -232 0l-73 -2l174 180q74 76 103 129q24 42 24 85q0 68 -47.5 111.5t-123.5 43.5q-94 0 -140 -56q-26 -31 -41 -92q26 -3 55 -6z" />
<glyph unicode="3" horiz-adv-x="492" d="M420 130q0 126 -110 171h-1v4v0q97 41 97 137q0 49 -20 83q-39 63 -140 63q-142 0 -186 -117q2 -1 49 -19q31 89 138 89q106 0 106 -102q0 -79 -67 -101q-24 -7 -65 -7h-29v-54l7 1l31 -1q67 -1 104 -46q35 -41 37 -109q-3 -70 -12 -103q-10 -38 -36 -64 q-54 -55 -153 -55q-48 0 -124 12l-9 -49q76 -12 124 -12q119 0 187 58q72 60 72 221z" />
<glyph unicode="4" horiz-adv-x="510" d="M472 90h-84v489h-78q0 -1 -276 -475v-54h305v-169h49v169h84v40zM338 498v-407h-262l252 426q3 9 10 24h2q-2 -30 -2 -43z" />
<glyph unicode="5" horiz-adv-x="447" d="M398 130q0 131 -105 181q-34 17 -94 20q-30 1 -84 1q0 5 1 16l4 190h248v42h-293l-8 -301h9l132 -2q68 -1 105 -45q33 -41 35 -110q-2 -70 -11 -103q-10 -38 -36 -64q-54 -55 -153 -55q-48 0 -124 12l-9 -49q76 -12 124 -12q118 0 188.5 59t70.5 220z" />
<glyph unicode="6" horiz-adv-x="533" d="M281 490q-101 5 -172 -82l1 15q9 115 66 178q63 69 174 63q48 -2 123 -18l11 48q-75 16 -123 19q-122 6 -190 -48q-100 -80 -111 -239l-8 -150q0 -7 -2 -21q-5 -112 50.5 -182t154.5 -75q102 -5 163 57t67 177q5 100 -55.5 176.5t-148.5 81.5zM433 235q-4 -87 -52.5 -138 t-122.5 -47q-75 4 -117 59t-38 143q4 78 56.5 133.5t118.5 52.5q66 -4 112.5 -64.5t42.5 -138.5z" />
<glyph unicode="7" horiz-adv-x="489" d="M38 580v-48h357l-332 -668h55l333 668v0v48h-413z" />
<glyph unicode="8" horiz-adv-x="525" d="M354 415q54 43 59 134q3 69 -39.5 122t-103.5 57v0q-57 3 -103 -39q-55 -49 -58 -124q-6 -105 63 -153q-46 -28 -74.5 -77.5t-31.5 -108.5q-6 -102 45 -165.5t141 -68.5q87 -5 141 45q63 56 69 168q3 64 -25.5 121.5t-82.5 88.5zM162 562q3 47 34.5 80.5t70.5 31.5 q40 -2 67.5 -39t25.5 -84q-3 -43 -23 -73q-23 -33 -63 -38q-11 0 -22 -1q-43 3 -67.5 36.5t-22.5 86.5zM406 208q-4 -83 -53 -127q-40 -36 -98 -33q-69 3 -104 56q-33 47 -29 119q4 76 59 125q42 38 92 36q57 -3 97 -56t36 -120z" />
<glyph unicode="9" horiz-adv-x="525" d="M478 320v3q5 100 -55.5 176t-148.5 81t-156.5 -64.5t-73.5 -169.5q-6 -112 49.5 -182t154.5 -76q112 -5 174 69l-1 -2q-8 -115 -66 -178q-63 -69 -174 -63q-48 2 -122 18l-12 -48q75 -16 123 -19q122 -6 190 48q100 80 111 239q3 44 8 154q0 8 -1 14zM251 140 q-75 4 -117 59t-38 144q4 77 57 133t119 52q65 -3 111.5 -64t42.5 -138q-4 -87 -52.5 -138.5t-122.5 -47.5z" />
<glyph unicode=":" horiz-adv-x="262" d="M99 70h70v-70h-70v70zM99 578h70v-70h-70v70z" />
<glyph unicode=";" horiz-adv-x="262" d="M89 578h70v-70h-70v70zM159 0l-50 1v-1h50zM89 70h70v-70v0q-1 -65 -74 -104l-18 41q42 23 42 63h-20v70z" />
<glyph unicode="&#x3c;" horiz-adv-x="515" d="M428 800h-62l-285 -402v0v0v0l283 -398h61l-283 398z" />
<glyph unicode="=" horiz-adv-x="459" d="M403 350h-352v49h352v-49zM403 215h-352v49h352v-49z" />
<glyph unicode="&#x3e;" horiz-adv-x="515" d="M81 800h61l286 -402v0v0v0l-284 -398h-61l283 398z" />
<glyph unicode="?" horiz-adv-x="461" d="M175 70h70v-70h-70v70zM213 799q-154 0 -193 -123q17 -5 45 -15q21 51 48 70q32 23 97 23q74 0 112 -40q32 -36 32 -94q0 -53 -22 -89q-14 -22 -66 -78l-1 -2q-56 -60 -68 -81q-15 -25 -15 -64v-154h49v138q0 46 14 69q11 18 64 73q51 51 69 83q24 42 24 101 q0 93 -61 142q-50 41 -128 41z" />
<glyph unicode="@" horiz-adv-x="820" d="M735 218q31 80 31 175q0 170 -96 290q-103 130 -268 130q-163 0 -260 -132q-87 -119 -87 -288q0 -168 87 -286q97 -130 260 -130q147 0 250 108l-51 20q-82 -82 -199 -82q-143 0 -224 118q-72 104 -72 253q0 148 72 252q81 118 224 118t232 -117q81 -106 81 -253 q0 -72 -19 -133h-154v315l-10 1q-44 5 -117 8q-74 4 -125.5 -43t-63.5 -122q-3 -19 -3 -36q0 -72 40 -123q43 -55 113 -55q64 0 113 49v-38v0v0h246v0v0v1zM489 389q0 -52 -32 -90q-33 -41 -83 -41q-48 0 -79 54q-17 29 -17 71q0 79 47 120q36 33 83 30q19 -1 81 -5v-63 q0 -71 1 -80z" />
<glyph unicode="A" horiz-adv-x="662" d="M588 0h53l-288 798h-52l-281 -798h53l100 283h313zM190 333l137 390l141 -390h-278z" />
<glyph unicode="B" horiz-adv-x="601" d="M556 249q-3 76 -54 129q-44 45 -112 66q102 49 95 190q-3 78 -76 127q-62 42 -138 45q-29 1 -57 1q-88 0 -143 -8h-1v0v0v-799h1v0q105 -16 207 -14q170 5 234 85q49 61 44 178zM246 762q68 -2 123 -35q65 -38 68 -97q9 -170 -211 -170h-106v301q59 3 126 1zM259 37 q-58 -1 -139 6v367h179q75 0 136 -40q71 -47 75 -124q4 -94 -40 -141q-58 -64 -211 -68z" />
<glyph unicode="C" horiz-adv-x="604" d="M394 760q53 0 154 -10v50q-94 8 -143 8q-138 0 -211 -53q-64 -48 -92 -98q-46 -81 -52 -225h-1v-35v-16v-18h1q6 -144 52 -225q28 -51 92 -98q73 -54 211 -54q49 0 143 9v50q-101 -10 -154 -10q-104 0 -161.5 43.5t-81.5 85.5q-41 72 -50 208v25.5v24.5q9 137 50 209 q23 41 81 85t162 44z" />
<glyph unicode="D" horiz-adv-x="671" d="M616 434q-6 143 -56 224q-31 51 -98 97q-78 53 -223 53q-17 0 -69 -3.5t-75 -3.5h-15v-801h1v0q93 -8 158 -8q142 0 223 53q64 42 98 99q49 84 56 222q1 23 1 34t-1 34zM565 375q-9 -136 -54 -209q-27 -44 -86 -83q-66 -43 -175 -43q-39 0 -120 5v269v0v0v440q81 6 120 6 q114 0 176 -43q59 -40 86 -84q44 -73 53 -208v-25v-25z" />
<glyph unicode="E" horiz-adv-x="532" d="M130 748h351v50h-351v0h-50v-798h400v49l-350 -1v265v0v0v97h351v50h-351v288z" />
<glyph unicode="F" horiz-adv-x="530" d="M130 748h351v50h-351v0h-50v-798h50v313v0v0v97h351v50h-351v288z" />
<glyph unicode="G" horiz-adv-x="688" d="M615 407h-254v-50h202v-312q-82 -5 -153 -5q-106 0 -165 43.5t-83 84.5q-42 71 -51 207q-1 4 -1 24t1 25q9 135 51 206q24 42 83 85t165 43q54 0 158 -9v49q-96 8 -146 8q-142 0 -216 -53q-65 -47 -95 -97q-46 -80 -53 -223h-1v-34v-16v-18h1q7 -143 53 -223 q30 -50 95 -97q74 -53 216 -53q96 0 159 4l34 3v358v0v50z" />
<glyph unicode="H" horiz-adv-x="672" d="M538 797v-337h-403v337h-50v-797h50v410h403v-410h49v797h-49z" />
<glyph unicode="I" horiz-adv-x="262" d="M110 800v-801h50v801h-50z" />
<glyph unicode="J" horiz-adv-x="282" d="M-19 -120q77 6 122 44q39 35 55 101q13 56 14 158v616h-51q2 -111 0 -613q-1 -178 -59 -228q-32 -28 -81 -32v-46z" />
<glyph unicode="K" horiz-adv-x="646" d="M190 436l408 362h-75l-381 -338v338h-50v-798h50v409q207 -188 410 -409h66q-210 236 -428 436z" />
<glyph unicode="L" horiz-adv-x="540" d="M151 50v263v0v0v486h-50v-798h402v49h-352z" />
<glyph unicode="M" horiz-adv-x="820" d="M666 800v0v0v0l-255 -507l-261 507v0v0h-50v0v0v-799h50v692l262 -528l254 525v-689h49v799h-49z" />
<glyph unicode="N" horiz-adv-x="748" d="M595 801v-706l-437 706v0v0h-50v-800h50v705l436 -705h1v0h49l1 800h-50z" />
<glyph unicode="O" horiz-adv-x="804" d="M394 808q-151 0 -246 -120q-93 -116 -93 -290q0 -173 93 -289q95 -120 246 -120q153 0 256 120q100 118 100 289q0 172 -100 290q-103 120 -256 120zM394 36q-131 0 -212 106q-77 102 -77 256q0 155 77 256q81 106 212 106q132 0 219 -105t87 -257q0 -151 -87 -256.5 t-219 -105.5z" />
<glyph unicode="P" horiz-adv-x="656" d="M595 564q-1 4 -1 16q-3 65 -30 109q-19 32 -63 68q-79 65 -199 56q-35 0 -196 -13v-803h50v286q96 -8 146 -8q106 0 189 63q92 71 103 183q0 8 1 22v21zM543 540q-1 -11 -3 -26q-13 -84 -77 -135q-74 -61 -150 -56q-28 0 -157 10v157v0v8q-1 14 0 28v7v0v222 q94 10 157 10q92 6 161 -50q63 -52 69 -142q1 -9 0 -33z" />
<glyph unicode="Q" horiz-adv-x="818" d="M777 -197q-74 -12 -122 -12q-71 0 -125 33.5t-78 96.5q-11 30 -17 67q140 15 230.5 131.5t90.5 277.5q0 172 -102 291t-255 119q-152 0 -248 -120q-93 -116 -93 -290q0 -171 89 -286q92 -119 238 -125q17 -121 93 -188q47 -41 128 -53q26 -4 57 -4q49 0 123 12zM108 397 q0 154 78 256q81 107 212 107q132 0 219.5 -105.5t87.5 -257.5q0 -153 -87.5 -258t-219.5 -105q-131 0 -212 106q-78 102 -78 257z" />
<glyph unicode="R" horiz-adv-x="686" d="M312 338q117 11 175.5 64.5t68.5 165.5v2v1v0q-1 105 -53 161q-67 71 -225 76q-65 2 -169 -11v0v0v-797h50v342q50 -5 80 -6q166 -156 329 -333h66q-159 177 -322 335zM159 753q56 5 100 4q143 -4 200 -60q44 -42 44 -126v0q-2 -109 -82 -151q-60 -33 -181 -33 q-7 1 -14 0q-30 1 -67 4v362z" />
<glyph unicode="S" horiz-adv-x="560" d="M412 29q59 36 74 120q5 29 5 50q0 55 -46 105q-40 43 -173 142q-84 62 -113 95t-29 67q0 13 4 31q14 71 65 105q34 23 82 23q24 0 52 -6q67 -13 121 -60v52q-54 40 -113 52q-31 6 -60 6q-69 0 -119 -33q-62 -42 -80 -129q-4 -19 -4 -37q0 -69 61 -128q15 -14 127 -96 q89 -65 117 -93q55 -55 55 -106q0 -11 -2 -22q-28 -131 -156 -131q-23 0 -48 5q-83 17 -158 67v-54q53 -42 139 -59q27 -5 55 -5q82 0 144 39z" />
<glyph unicode="T" horiz-adv-x="558" d="M512 799h-466v-50h208v-749h50v749h208v50z" />
<glyph unicode="U" horiz-adv-x="702" d="M606 796h-56v-524q0 -107 -37 -162q-48 -69 -163 -69t-163 69q-38 55 -38 162v524h-56v-529q0 -279 257 -279q256 0 256 279v529z" />
<glyph unicode="V" horiz-adv-x="718" d="M338 -1h53l280 797h-53l-254 -722l-260 722h-53z" />
<glyph unicode="W" horiz-adv-x="1058" d="M953 799l-199 -703l-199 703v0h-54v0l-199 -703l-199 703h-54l226 -798v0h54l199 702l198 -702h1h54l226 798h-54z" />
<glyph unicode="X" horiz-adv-x="670" d="M611 799h-59l-223 -358l-224 358h-59l253 -406l-245 -392h59l216 345l216 -345h59l-246 392z" />
<glyph unicode="Y" horiz-adv-x="634" d="M345 393v0l254 406h-59l-224 -358l-224 358h-59l258 -410v-388h50v385z" />
<glyph unicode="Z" horiz-adv-x="614" d="M538 799h-1h1h-56v0h-399v-50h374l-369 -748h28v-1h422v50h-370z" />
<glyph unicode="[" horiz-adv-x="440" d="M344 917v50h-160v0h-51v-1275h1v0h210v50h-160v1175h160z" />
<glyph unicode="\" horiz-adv-x="429" d="M297 -3l-220 917h51l220 -917h-51z" />
<glyph unicode="]" horiz-adv-x="440" d="M133 917v50h161v0h50v-1275v0v0h-211v50h161v1175h-161z" />
<glyph unicode="^" horiz-adv-x="370" d="M322 702l-141 94v0v0l-140 -94l27 -41l113 76l114 -76z" />
<glyph unicode="_" horiz-adv-x="642" d="M595 0h-547v50h547v-50z" />
<glyph unicode="`" horiz-adv-x="312" d="M63 737l161 -80l22 43l-161 80z" />
<glyph unicode="a" horiz-adv-x="622" d="M356 587q-114 8 -195 -64q-87 -76 -107 -200q-5 -30 -5 -59q0 -112 63 -195q69 -90 177 -90q89 0 159 61q34 30 54 60v-35v0v0v-65h50v573q-117 13 -196 14zM502 272q-1 -117 -79 -186q-65 -56 -138 -56q-92 0 -152 101q-32 55 -32 131q0 61 22 120q24 65 65 101 q70 62 157 56q28 0 157 -10v-257z" />
<glyph unicode="b" horiz-adv-x="602" d="M558 308v15q-4 102 -58 171q-56 73 -152 88q-34 5 -82 5q-50 0 -146 -9v337h-50v-916v0v0q117 -13 196 -14q108 -7 189 64q89 77 102 216q1 7 1 21q1 14 0 22zM507 284q-1 -12 -3 -27q-19 -118 -77 -168q-69 -61 -150 -56q-28 0 -157 10v222v0v7v28v7v0v222q94 9 157 10 q100 7 161 -50.5t69 -171.5v-33z" />
<glyph unicode="c" horiz-adv-x="547" d="M515 65q-65 -18 -83 -22q-49 -13 -110 -10q-86 0 -150 56q-57 50 -76 168q-3 15 -3 27q-1 24 0 33q7 114 69 172q53 50 160 50q52 0 152 -10v50q-92 8 -141 8q-134 0 -199 -57q-87 -76 -92 -207q0 -4 -1 -15v-22q0 -6 1 -21q14 -139 103 -216q73 -65 188 -64q25 1 53 4 q65 8 130 27q0 -3 -1 12v37z" />
<glyph unicode="d" horiz-adv-x="616" d="M492 915v-337q-96 9 -147 9q-122 0 -195 -64q-87 -76 -107 -200q-5 -30 -5 -59q0 -112 63 -195q69 -90 177 -90q89 0 159 61q34 30 55 60v-35v0v0v-65h49v915h-49zM492 272q-1 -117 -80 -186q-65 -56 -137 -56q-93 0 -152 101q-33 55 -33 131q0 61 22 120q24 65 66 101 q70 62 156 56q28 0 158 -10q2 -27 0 -257z" />
<glyph unicode="e" horiz-adv-x="592" d="M542 289q4 105 -48 188q-58 92 -156 108q-18 3 -35 3q-89 0 -159 -62q-93 -81 -103 -205q-1 -6 -1 -13v-22v-21q17 -141 102 -216q74 -65 189 -64q25 1 52 4q66 8 130 27q0 -3 0 12v37q-65 -18 -83 -22q-49 -13 -110 -10q-86 0 -150 56q-57 50 -76 168q-3 15 -3 27v5h451 zM306 537q93 0 152 -102q25 -41 31 -96h-396q13 86 77 142t136 56z" />
<glyph unicode="f" horiz-adv-x="372" d="M244 844q32 27 80 31v45q-76 -6 -119 -44q-37 -33 -52 -97q-12 -51 -15 -153v-47h-84v-50h84v-530h50v530h130v50h-130v44q5 175 56 221z" />
<glyph unicode="g" horiz-adv-x="644" d="M359 590q-114 8 -196 -64q-88 -76 -108 -201q-4 -30 -4 -59q0 -113 63 -196q69 -90 178 -90q89 0 159 61q34 30 55 60v-35v0v0v-73v-32q-3 -139 -73 -200q-62 -54 -152 -54q-49 0 -124 12l-9 -49q75 -12 124 -12q31 0 57 3q82 12 129 54q96 84 98 244q1 71 0 155v463 q-117 12 -197 13zM506 274q-1 -117 -80 -187q-65 -57 -138 -57q-93 0 -153 103q-32 55 -32 131q0 61 22 121q24 64 66 101q70 61 157 56q28 0 158 -9q2 -28 0 -259z" />
<glyph unicode="h" horiz-adv-x="663" d="M563 486q-28 50 -65.5 73.5t-103.5 33.5q-18 3 -35 3q-63 0 -122 -34q-54 -32 -92 -87v445h-50v-921h50v317q0 103 80 172q65 57 137 57q12 0 23 -1q54 -9 81.5 -27.5t51.5 -58.5q30 -50 30 -146v0v-312h52v312v0q-1 114 -37 174z" />
<glyph unicode="i" horiz-adv-x="244" d="M98 579v-580h50v580h-50zM148 726h-50v-50h50v50z" />
<glyph unicode="j" horiz-adv-x="260" d="M102 726v-50h50v50h-50zM102 -43q-1 -172 -57 -220q-31 -28 -79 -31v-46q75 6 118 44q39 33 54 97q13 55 14 154v624h-50q2 -109 0 -622z" />
<glyph unicode="k" horiz-adv-x="532" d="M219 329l255 250h-72l-249 -245v586h-50v-921h50v264l30 31q141 -139 259 -294h63q-130 175 -286 329z" />
<glyph unicode="l" horiz-adv-x="260" d="M99 -2h50v921h-50v-921z" />
<glyph unicode="m" horiz-adv-x="1042" d="M930 502q-41 78 -157 94q-17 3 -34 3q-85 0 -154 -61q-36 -31 -56 -69q-40 108 -171 127q-17 3 -34 3q-103 0 -178 -85v65h-50v-579h50v418q15 43 49 73q65 57 133 57q104 0 141 -80q27 -58 29 -153v-316h52v314q0 36 -1 57q13 79 61 121q65 57 133 57q104 0 141 -80 q27 -58 29 -153v-316h52v314q0 121 -35 189z" />
<glyph unicode="n" horiz-adv-x="673" d="M563 486q-29 49 -66 72.5t-104 34.5q-17 2 -35 2q-63 0 -119.5 -33t-93.5 -87v103h-50v-578h50v316q0 102 79 172q65 57 138 57q11 0 22 -2q54 -9 82 -27t51 -59q30 -50 30 -145v0v-312h52v312q0 112 -36 174z" />
<glyph unicode="o" d="M314 590q-105 0 -185.5 -89t-80.5 -213q0 -140 73 -221t193 -81q125 0 195.5 80t70.5 222q0 124 -80 213t-186 89zM315 36q-97 0 -156 67.5t-59 184.5q0 103 65 177.5t150 74.5t150 -74.5t65 -177.5q0 -115 -60 -183.5t-155 -68.5z" />
<glyph unicode="p" horiz-adv-x="631" d="M581 325q-6 131 -93 208q-66 58 -170 58q-15 0 -30 -1q-35 0 -196 -14v-919h50v338q96 -9 146 -9q117 0 190 64q89 78 102 216q1 8 1 22q1 14 0.5 20t-0.5 17zM529 286q0 -12 -2 -27q-20 -119 -77 -169q-70 -61 -150 -56q-29 0 -158 10v222v0v8v28v7v0v222q94 10 158 11 q100 6 161 -51t69 -173q0 -8 -1 -32z" />
<glyph unicode="q" horiz-adv-x="631" d="M352 590q-114 7 -196 -64q-87 -77 -107 -202q-5 -29 -5 -58q0 -113 63 -196q69 -90 178 -90q90 0 160 61q33 30 54 60v-35v0v0v-409h50v919q-117 13 -197 14zM499 274q-1 -117 -80 -187q-65 -57 -137 -57q-93 0 -153 103q-32 55 -32 131q0 61 21 120q24 65 66 102 q70 61 157 56q29 0 158 -11v-257z" />
<glyph unicode="r" horiz-adv-x="336" d="M194 526q-36 -32 -62 -76v128h-50v-578h50v272q0 9 6 45q18 111 84 169q33 28 73 42v51q-58 -16 -101 -53z" />
<glyph unicode="s" horiz-adv-x="391" d="M188 328q-99 60 -99 110q0 9 3 22q16 80 100 80q15 0 33 -3q37 -6 56 -16q24 -11 55 -42l5 47q-58 60 -159 60q-120 0 -142 -112q-3 -16 -3 -30q0 -65 67 -120q63 -42 125 -84q67 -50 67 -102q0 -10 -2 -20q-18 -96 -108 -96q-79 0 -145 59l-2 -55q39 -30 102 -42 q22 -5 44 -5q61 0 103 31q46 32 58 92q4 22 4 40q0 47 -35 88t-127 98z" />
<glyph unicode="t" horiz-adv-x="343" d="M209 53q-28 25 -35 91q-2 19 -3 135q-2 125 0 249h129v50h-129v97h-50v-97h-84v-50h84q-2 -126 0 -252q2 -128 5 -156q9 -70 45 -101q22 -19 69 -24q17 -2 76 -2v43q-84 -2 -107 17z" />
<glyph unicode="u" horiz-adv-x="610" d="M470 577v-416q-16 -44 -50 -74q-64 -56 -132 -56q-103 0 -140 79q-27 58 -29 153v314h-52v-313q0 -120 35 -187q41 -77 157 -94q16 -2 33 -2q102 0 178 84v-65h49v577h-49z" />
<glyph unicode="v" horiz-adv-x="519" d="M237 0h52l203 577h-53l-176 -502l-182 502h-53z" />
<glyph unicode="w" horiz-adv-x="924" d="M849 577l-176 -502l-182 502h-1h-52l-177 -502l-182 502h-53l209 -577h53l176 503l183 -503h52l203 577h-53z" />
<glyph unicode="x" horiz-adv-x="576" d="M545 0l-226 291l222 286h-64l-189 -245l-191 245h-63l222 -286l-226 -291h63l195 250l194 -250h63z" />
<glyph unicode="y" horiz-adv-x="524" d="M442 577l-177 -502l-182 502h-53l209 -577l-79 -226q-7 -20 -29 -42q-29 -29 -77 -35l2 -45q75 10 115 49q22 21 34 53v0h1q1 5 4 13l284 810h-52z" />
<glyph unicode="z" horiz-adv-x="513" d="M478 577h-59v-1h-377v-49h344l-344 -527h59v0h371v50h-338z" />
<glyph unicode="{" horiz-adv-x="530" d="M468 917v50h-161v0h-50q-89 -272 -109 -563h-111v-50h110q-1 -13 0 -24q3 -92 15 -188q28 -232 95 -450v0v0h211v50h-175q-93 344 -96 588q-4 244 95 587h176z" />
<glyph unicode="|" horiz-adv-x="280" d="M169 -308h-50v1275h50v-1275z" />
<glyph unicode="}" horiz-adv-x="530" d="M37 917v50h161v0h50q88 -272 109 -563h111v-50h-110v-24q-3 -92 -15 -188q-28 -232 -95 -450v0v0h-211v50h175q92 344 96 588q3 244 -95 587h-176z" />
<glyph unicode="&#xa1;" horiz-adv-x="262" d="M153 -1v652h-50v-652h50zM163 739h-70v60h70v-60z" />
<glyph unicode="&#xa9;" horiz-adv-x="4411" d="M3272 738q17 69 84 69q33 0 56 -19.5t23 -52.5q0 -38 -59 -99l-80 -83l34 1q97 3 107 0v-20h-168v19l95 100q47 49 47 82q0 24 -16.5 38.5t-40.5 14.5q-51 0 -56 -52zM3739 667q0 -62 -29 -99q-32 -40 -93 -40q-60 0 -93 41q-30 38 -30 98q0 54 35 97t88 43q52 0 87 -43 t35 -97zM3716 667q0 44 -28 80.5t-71 36.5t-71.5 -36.5t-28.5 -80.5q0 -50 25 -81q27 -35 75 -35t75 35q24 32 24 81zM4037 667q0 -62 -30 -99q-32 -40 -93 -40q-59 0 -92 41q-31 38 -31 98q0 54 35 97t88 43t88 -43t35 -97zM4014 667q0 44 -27 79q-30 38 -73 38 q-42 0 -70.5 -36.5t-28.5 -80.5q0 -50 24 -81q27 -35 75 -35t75 35q25 32 25 81zM4283 557h-39v-78h-22v78h-141v25l127 219h36v-226h39v-18zM4222 784h-1q-3 -7 -5 -12l-116 -196h121v188q0 6 1 20zM1659 373h-96v-346h-23v346h-96v24h215v-24zM1885 294v-267h-23v30 q-35 -38 -82 -38q-65 0 -88 44q-16 31 -16 86v145h24v-145q0 -107 78 -107q26 0 50.5 17t33.5 43v192h23zM2194 150q-6 -59 -41 -94t-94 -35q-23 0 -67 4v-156h-23v425q69 6 90 6h6.5h7.5q54 0 86.5 -34t34.5 -88q0 -3 1 -8q0 -7 -1 -20zM2171 174q-7 108 -106 104 q-42 -2 -73 -5v-225q40 -3 73 -5q87 -4 105 104q2 14 1 27zM2802 397l-105 -369h-25l-92 324l-91 -324h-25l-105 369h25l92 -325l92 325h25l92 -325l92 325h25zM3057 292v-264h-23v46q-10 -14 -25 -28q-33 -28 -74 -28q-50 0 -82 41q-29 38 -29 90q0 75 52 120q37 32 90 30 q27 -2 91 -7zM3034 272q-34 2 -73 4q-51 3 -84 -38q-29 -37 -29 -89q0 -36 15 -61q28 -47 70 -47q44 0 72 34t29 78v119zM3365 171v-144h-24v144q0 71 -37 95q-21 13 -48 13q-41 0 -70.5 -32.5t-29.5 -73.5v-146h-23v267h23v-47q38 55 98 55q38 0 64 -17q47 -30 47 -114z M3650 450v-423h-23v47q-10 -15 -25 -28q-32 -28 -74 -28q-50 0 -82 41q-29 38 -29 90q0 66 39 107.5t103 41.5q24 0 68 -4v156h23zM3627 272q-32 2 -73 4q-51 3 -83 -38q-29 -37 -29 -90q0 -34 15 -60q27 -47 70 -47t71.5 34t28.5 78v119zM3726 161v-3q0 -4 2 -12 q17 -102 104 -103q30 -1 51 4q9 2 38 10v-22q-46 -14 -84 -14q-58 -1 -92.5 34t-41.5 95v10v5v6.5v4.5q5 57 48 94q33 29 73 29q56 0 89 -51q24 -39 22 -87h-209zM3727 184h183q-2 25 -14 44q-28 48 -70 48q-37 0 -65 -27.5t-34 -64.5zM4093 295v-24q-60 -21 -72 -97 q-3 -17 -3 -21v-126h-23v268h23v-60q27 46 75 60zM4274 93q0 -34 -21 -54.5t-55 -20.5q-39 0 -67 21l1 26q30 -27 67 -27q51 0 51 53q0 25 -31 47q-7 5 -58 39q-31 25 -31 55q0 7 1 14q10 52 66 52q47 0 73 -28l-2 -21q-22 22 -51 26q-9 2 -15 2q-39 0 -47 -37q-1 -7 -1 -10 q0 -23 46 -51q74 -46 74 -86zM436 534l-141 433h173l67 -219q2 6 66 219h183l71 -219q2 9 62 219h171l-141 -433h-195l-61 185l-60 -185h-195zM796 -49l-12 38v-108l12 9v61zM822 254l-13 9v-198l13 -9v198zM834 277l13 -39v224l-13 -9v-176zM734 -156l12 9v456l-12 9v-474z M771 291l-12 9v-438l12 10v419zM809 355l13 -39v128l-13 -9v-80zM796 272l-12 10v-252l12 39v203zM935 -10l12 9v535h-1l-11 -8v-536zM847 236l-13 9v-199l13 -9v199zM520 473l-13 10v-469l13 10v449zM545 243l-9 -7l9 29v190l-13 9v-431l13 10v200zM482 -5l13 10v487l-13 9 v-506zM796 425l-8 -5l8 -25v30zM872 480l-13 -9v-444l13 -9v462zM897 498l-13 -9v-481l13 -9v499zM997 497l-12 9v-479l12 9v461zM1048 153l-13 38v-128l13 9v81zM1035 470v-193l13 -10v193zM1098 424l-13 9v-196l13 -10v197zM1023 230l-13 39v-224l13 9v176zM1073 442 l-13 9v-194l13 -10v195zM1023 479l-13 9v-191q3 -2 13 -10v192zM570 437l-12 9v-142l12 39v94zM960 8l12 10v497l-12 9v-516zM1299 277l-12 10v-41l12 9v22zM1224 332l-13 9v-150l13 9v132zM1249 314l-13 9v-114l13 9v96zM1123 405l-12 10v-198l12 -10v198zM1274 296l-13 9 v-78l13 9v60zM1148 387l-12 9v-199l12 -10v200zM1173 369l-12 9v-200l12 -10v201zM1199 351l-13 9v-187l13 9v169zM369 257l-13 -39v-162l13 -9v210zM570 261l-12 -9v-200l12 10v199zM218 375l-12 -9v-200v-1l12 9v201zM193 357l-13 -9v-164l13 -9v182zM92 284l-12 -10v-17 l12 -9v36zM168 338l-13 -9v-127l13 -9v145zM570 -97v-1v-1v2zM118 302l-13 -9v-54l13 -9v72zM143 320l-13 -9v-90l13 -10v109zM470 510l-13 9v-536l5 -3l8 6v524zM1060 81l9 7l-9 26v-33zM1312 264l3 2l-3 2v-4zM922 517l-13 -9v-519l12 -9l1 1v536zM696 346l-4 2v0l-2 1 l-7 -6v-524l8 -5l5 3v529zM671 334l-13 -9v-488l13 -9v506zM721 327l-13 10v-511l13 9v492zM809 -101l4 3l-4 12v-15zM319 102l-5 -15l5 -3v18zM646 316l-13 -9v-451l13 -9v469zM583 383l11 36l-11 9v-45zM268 412l-12 -10v-198l12 10v198zM432 2l12 -9v535l-8 6l-4 -3v-529 zM620 298l-12 -10v-414l12 -9v433zM595 42v237l-12 -9v-198l2 1zM595 -117v94l-12 -37v-48zM369 485l-13 -9v-193l13 10v192zM419 521l-12 -9v-492l12 -9v510zM231 184l12 10v199l-12 -9v-200zM394 503l-12 -9v-190q2 1 3 2q-1 -4 -3 -10v-258l12 -9v474zM344 65v115 l-13 -39v-66zM294 430l-13 -9v-197l13 10v196zM319 448l-13 -9v-195l13 9v195zM344 467l-13 -10v-194l13 10v194z" />
<glyph unicode="&#xad;" horiz-adv-x="377" d="M322 291h-262v49h262v-49z" />
<glyph unicode="&#xb0;" horiz-adv-x="344" d="M172 795q-43 0 -73.5 -30.5t-30.5 -73.5t30.5 -73.5t73.5 -30.5t73.5 30.5t30.5 73.5t-30.5 73.5t-73.5 30.5zM172 630q-25 0 -43 17.5t-18 43.5q0 25 18 42.5t43 17.5t43 -17.5t18 -42.5q0 -26 -18 -43.5t-43 -17.5z" />
<glyph unicode="&#xb1;" horiz-adv-x="459" d="M404 291h-352v49h352v-49zM253 492v-352h-50v352h50zM352 -1h-262v49h262v-49z" />
<glyph unicode="&#xd2;" />
<glyph unicode="&#xd3;" />
<glyph unicode="&#xd6;" />
<glyph unicode="&#xd7;" horiz-adv-x="459" d="M370 422l-249 -248l-35 35l249 248zM121 457l249 -248l-35 -35l-249 248z" />
<glyph unicode="&#xe0;" horiz-adv-x="640" d="M365 587q-114 8 -195 -63q-87 -77 -107 -201q-5 -29 -5 -59q0 -111 63 -194q69 -90 177 -90q89 0 159 61q33 29 54 60v-35v0v0v-66h50v574q-117 12 -196 13zM511 273q-1 -117 -80 -186q-64 -57 -137 -57q-92 0 -152 102q-32 55 -32 130q0 62 22 121q24 64 65 101 q70 61 157 55q28 0 157 -10v-256zM237 737l161 -80l22 43l-161 80z" />
<glyph unicode="&#xe1;" horiz-adv-x="640" d="M365 587q-114 8 -195 -63q-87 -77 -107 -201q-5 -29 -5 -59q0 -111 63 -194q69 -90 177 -90q89 0 159 61q33 29 54 60v-35v0v0v-66h50v574q-117 12 -196 13zM511 273q-1 -117 -80 -186q-64 -57 -137 -57q-92 0 -152 102q-32 55 -32 130q0 62 22 121q24 64 65 101 q70 61 157 55q28 0 157 -10v-256zM453 737l-161 -80l-22 43l161 80z" />
<glyph unicode="&#xe2;" horiz-adv-x="640" d="M365 587q-114 8 -195 -63q-87 -77 -107 -201q-5 -29 -5 -59q0 -111 63 -194q69 -90 177 -90q89 0 159 61q33 29 54 60v-35v0v0v-66h50v574q-117 12 -196 13zM511 273q-1 -117 -80 -186q-64 -57 -137 -57q-92 0 -152 102q-32 55 -32 130q0 62 22 121q24 64 65 101 q70 61 157 55q28 0 157 -10v-256zM472 702l-141 94v0v0l-140 -94l27 -41l113 76l114 -76z" />
<glyph unicode="&#xe4;" horiz-adv-x="640" d="M365 587q-114 8 -195 -63q-87 -77 -107 -201q-5 -29 -5 -59q0 -111 63 -194q69 -90 177 -90q89 0 159 61q33 29 54 60v-35v0v0v-66h50v574q-117 12 -196 13zM511 273q-1 -117 -80 -186q-64 -57 -137 -57q-92 0 -152 102q-32 55 -32 130q0 62 22 121q24 64 65 101 q70 61 157 55q28 0 157 -10v-256zM248 716h-50v-50h50v50zM468 716h-50v-50h50v50z" />
<glyph unicode="&#xe8;" horiz-adv-x="592" d="M542 289q4 105 -48 188q-58 92 -156 108q-18 3 -35 3q-89 0 -159 -62q-93 -81 -103 -205q-1 -6 -1 -13v-22v-21q17 -141 102 -216q74 -65 189 -64q25 1 52 4q66 8 130 27q0 -3 0 12v37q-65 -18 -83 -22q-49 -13 -110 -10q-86 0 -150 56q-57 50 -76 168q-3 15 -3 27v5h451 zM306 537q93 0 152 -102q25 -41 31 -96h-396q13 86 77 142t136 56zM144 737l161 -80l22 43l-161 80z" />
<glyph unicode="&#xe9;" horiz-adv-x="592" d="M542 289q4 105 -48 188q-58 92 -156 108q-18 3 -35 3q-89 0 -159 -62q-93 -81 -103 -205q-1 -6 -1 -13v-22v-21q17 -141 102 -216q74 -65 189 -64q25 1 52 4q66 8 130 27q0 -3 0 12v37q-65 -18 -83 -22q-49 -13 -110 -10q-86 0 -150 56q-57 50 -76 168q-3 15 -3 27v5h451 zM306 537q93 0 152 -102q25 -41 31 -96h-396q13 86 77 142t136 56zM427 737l-161 -80l-22 43l161 80z" />
<glyph unicode="&#xea;" horiz-adv-x="592" d="M542 289q4 105 -48 188q-58 92 -156 108q-18 3 -35 3q-89 0 -159 -62q-93 -81 -103 -205q-1 -6 -1 -13v-22v-21q17 -141 102 -216q74 -65 189 -64q25 1 52 4q66 8 130 27q0 -3 0 12v37q-65 -18 -83 -22q-49 -13 -110 -10q-86 0 -150 56q-57 50 -76 168q-3 15 -3 27v5h451 zM306 537q93 0 152 -102q25 -41 31 -96h-396q13 86 77 142t136 56zM432 702l-141 94v0v0l-140 -94l27 -41l113 76l114 -76z" />
<glyph unicode="&#xeb;" horiz-adv-x="592" d="M542 289q4 105 -48 188q-58 92 -156 108q-18 3 -35 3q-89 0 -159 -62q-93 -81 -103 -205q-1 -6 -1 -13v-22v-21q17 -141 102 -216q74 -65 189 -64q25 1 52 4q66 8 130 27q0 -3 0 12v37q-65 -18 -83 -22q-49 -13 -110 -10q-86 0 -150 56q-57 50 -76 168q-3 15 -3 27v5h451 zM306 537q93 0 152 -102q25 -41 31 -96h-396q13 86 77 142t136 56zM198 726h-50v-50h50v50zM418 726h-50v-50h50v50z" />
<glyph unicode="&#xec;" horiz-adv-x="244" d="M98 579v-580h50v580h-50zM38 737l161 -80l22 43l-161 80z" />
<glyph unicode="&#xed;" horiz-adv-x="244" d="M98 579v-580h50v580h-50zM210 737l-161 -80l-22 43l161 80z" />
<glyph unicode="&#xee;" horiz-adv-x="244" d="M98 579v-580h50v580h-50zM262 702l-141 94v0v0l-140 -94l27 -41l113 76l114 -76z" />
<glyph unicode="&#xef;" horiz-adv-x="244" d="M98 579v-580h50v580h-50zM88 726h-50v-50h50v50zM208 726h-50v-50h50v50z" />
<glyph unicode="&#xf2;" d="M314 590q-105 0 -185.5 -89t-80.5 -213q0 -140 73 -221t193 -81q125 0 195.5 80t70.5 222q0 124 -80 213t-186 89zM315 36q-97 0 -156 67.5t-59 184.5q0 103 65 177.5t150 74.5t150 -74.5t65 -177.5q0 -115 -60 -183.5t-155 -68.5zM220 737l161 -80l22 43l-161 80z" />
<glyph unicode="&#xf3;" d="M314 590q-105 0 -185.5 -89t-80.5 -213q0 -140 73 -221t193 -81q125 0 195.5 80t70.5 222q0 124 -80 213t-186 89zM315 36q-97 0 -156 67.5t-59 184.5q0 103 65 177.5t150 74.5t150 -74.5t65 -177.5q0 -115 -60 -183.5t-155 -68.5zM453 737l-161 -80l-22 43l161 80z" />
<glyph unicode="&#xf4;" d="M314 590q-105 0 -185.5 -89t-80.5 -213q0 -140 73 -221t193 -81q125 0 195.5 80t70.5 222q0 124 -80 213t-186 89zM315 36q-97 0 -156 67.5t-59 184.5q0 103 65 177.5t150 74.5t150 -74.5t65 -177.5q0 -115 -60 -183.5t-155 -68.5zM442 702l-141 94v0v0l-140 -94l27 -41 l113 76l114 -76z" />
<glyph unicode="&#xf6;" d="M314 590q-105 0 -185.5 -89t-80.5 -213q0 -140 73 -221t193 -81q125 0 195.5 80t70.5 222q0 124 -80 213t-186 89zM315 36q-97 0 -156 67.5t-59 184.5q0 103 65 177.5t150 74.5t150 -74.5t65 -177.5q0 -115 -60 -183.5t-155 -68.5zM220 716h-50v-50h50v50zM440 716h-50 v-50h50v50z" />
<glyph unicode="&#xf9;" horiz-adv-x="610" d="M470 577v-416q-16 -44 -50 -74q-64 -56 -132 -56q-103 0 -140 79q-27 58 -29 153v314h-52v-313q0 -120 35 -187q41 -77 157 -94q16 -2 33 -2q102 0 178 84v-65h49v577h-49zM190 737l161 -80l22 43l-161 80z" />
<glyph unicode="&#xfa;" horiz-adv-x="610" d="M470 577v-416q-16 -44 -50 -74q-64 -56 -132 -56q-103 0 -140 79q-27 58 -29 153v314h-52v-313q0 -120 35 -187q41 -77 157 -94q16 -2 33 -2q102 0 178 84v-65h49v577h-49zM403 737l-161 -80l-22 43l161 80z" />
<glyph unicode="&#xfb;" horiz-adv-x="610" d="M470 577v-416q-16 -44 -50 -74q-64 -56 -132 -56q-103 0 -140 79q-27 58 -29 153v314h-52v-313q0 -120 35 -187q41 -77 157 -94q16 -2 33 -2q102 0 178 84v-65h49v577h-49zM432 702l-141 94v0v0l-140 -94l27 -41l113 76l114 -76z" />
<glyph unicode="&#xfc;" horiz-adv-x="610" d="M470 577v-416q-16 -44 -50 -74q-64 -56 -132 -56q-103 0 -140 79q-27 58 -29 153v314h-52v-313q0 -120 35 -187q41 -77 157 -94q16 -2 33 -2q102 0 178 84v-65h49v577h-49zM200 716h-50v-50h50v50zM420 716h-50v-50h50v50z" />
<glyph unicode="&#x2000;" horiz-adv-x="483" />
<glyph unicode="&#x2001;" horiz-adv-x="967" />
<glyph unicode="&#x2002;" horiz-adv-x="483" />
<glyph unicode="&#x2003;" horiz-adv-x="967" />
<glyph unicode="&#x2004;" horiz-adv-x="322" />
<glyph unicode="&#x2005;" horiz-adv-x="241" />
<glyph unicode="&#x2006;" horiz-adv-x="161" />
<glyph unicode="&#x2007;" horiz-adv-x="161" />
<glyph unicode="&#x2008;" horiz-adv-x="120" />
<glyph unicode="&#x2009;" horiz-adv-x="193" />
<glyph unicode="&#x200a;" horiz-adv-x="53" />
<glyph unicode="&#x2010;" horiz-adv-x="377" d="M322 291h-262v49h262v-49z" />
<glyph unicode="&#x2011;" horiz-adv-x="377" d="M322 291h-262v49h262v-49z" />
<glyph unicode="&#x2012;" horiz-adv-x="377" d="M322 291h-262v49h262v-49z" />
<glyph unicode="&#x2013;" horiz-adv-x="615" d="M560 291h-500v49h500v-49z" />
<glyph unicode="&#x2014;" horiz-adv-x="1115" d="M1060 291h-1000v49h1000v-49z" />
<glyph unicode="&#x202f;" horiz-adv-x="193" />
<glyph unicode="&#x205f;" horiz-adv-x="241" />
<glyph unicode="&#x20ac;" horiz-adv-x="699" d="M492 760q53 0 155 -10v50q-94 8 -144 8q-139 0 -212 -54q-63 -46 -92 -98q-39 -69 -50 -180h-104v-50h100l-1 -32v-16t1 -18h1q1 -9 1 -20h-102v-50h107q11 -89 40 -144q32 -62 99 -111q74 -55 212 -55q50 0 144 9v51q-101 -10 -155 -10q-170 0 -244 130q-29 50 -42 130 h326v50h-332q-1 9 -2 29q-1 8 -1 26q0 21 1 24v7h334v50h-329q12 96 45 154q73 130 244 130z" />
<glyph unicode="&#xe000;" horiz-adv-x="575" d="M0 575h575v-575h-575v575z" />
</font>
</defs>
</svg>
