<?xml version="1.0" standalone="no"?>
<!DOCTYPE svg PUBLIC "-//W3C//DTD SVG 1.1//EN" "http://www.w3.org/Graphics/SVG/1.1/DTD/svg11.dtd" >
<svg xmlns="http://www.w3.org/2000/svg">
<metadata>
This is a custom SVG font generated by IcoMoon.
<iconset grid="32"></iconset>
</metadata>
<defs>
<font id="basic-icons-light" horiz-adv-x="1024" >
<font-face units-per-em="1024" ascent="960" descent="-64" />
<missing-glyph horiz-adv-x="1024" />
<glyph class="hidden" unicode="&#xf000;" d="M0,960L 1024 -64L0 -64 z" horiz-adv-x="0" />
<glyph unicode="&#xe000;" d="M 402.746,813.254l-320-320c-24.994-24.992-24.994-65.516,0-90.508l 320-320c 24.994-24.992, 65.516-24.992, 90.51,0
	c 24.996,24.992, 24.996,65.516,0,90.508L 282.508,384L 896,384 c 35.346,0, 64,28.652, 64,64c0,35.346-28.654,64-64,64L 282.508,512 l 210.746,210.746
	C 505.75,735.242, 512,751.622, 512,768s-6.248,32.758-18.744,45.254C 468.26,838.248, 427.74,838.248, 402.746,813.254z"  />
<glyph unicode="&#xe001;" d="M 877.254,557.254l-320,320c-24.992,24.994-65.514,24.994-90.508,0l-320-320c-24.994-24.994-24.994-65.516,0-90.51
	c 24.994-24.996, 65.516-24.996, 90.51,0L 448,677.49L 448,64 c0-35.346, 28.654-64, 64-64c 35.346,0, 64,28.654, 64,64L 576,677.49 l 210.746-210.746
	C 799.242,454.248, 815.622,448, 832,448s 32.758,6.248, 45.254,18.746C 902.248,491.74, 902.248,532.26, 877.254,557.254z"  />
<glyph unicode="&#xe002;" d="M 621.254,82.746l 320,320c 24.994,24.992, 24.994,65.516,0,90.51l-320,320c-24.994,24.992-65.516,24.992-90.51,0
	c-24.994-24.994-24.994-65.516,0-90.51L 741.49,512L 128,512 c-35.346,0-64-28.654-64-64s 28.654-64, 64-64l 613.49,0 L 530.744,173.254
	C 518.248,160.758, 512,144.378, 512,128s 6.248-32.758, 18.744-45.254C 555.738,57.752, 596.26,57.752, 621.254,82.746z"  />
<glyph unicode="&#xe003;" d="M 146.746,338.746l 320-320c 24.992-24.994, 65.516-24.994, 90.51,0l 320,320c 24.992,24.994, 24.992,65.516,0,90.51
	c-24.994,24.994-65.516,24.994-90.51,0L 576,218.51L 576,832 c0,35.346-28.654,64-64,64s-64-28.654-64-64l0-613.49 L 237.254,429.256
	C 224.758,441.752, 208.378,448, 192,448s-32.758-6.248-45.254-18.744C 121.752,404.262, 121.752,363.74, 146.746,338.746z"  />
<glyph unicode="&#xe004;" d="M 1024,448C 1024,165.23, 794.77-64, 512-64s -512,229.23, -512,512s 229.23,512, 512,512S 1024,730.77, 1024,448z M 96,448
		c 0-229.75 186.25-416 416-416S 928,218.25, 928,448s -186.25,416, -416,416S 96,677.75, 96,448zM 557.254,749.256l 256-256.002c 24.994-24.992 24.994-65.514 0-90.508c -24.994-24.994 -65.516-24.994,-90.51,0L 576,549.49
	L 576,192 c 0-35.346 -28.654-64 -64-64c-35.346,0, -64,28.654, -64,64l0,357.49 l -146.744-146.746c -24.994-24.994 -65.518-24.994,-90.512,0
	C 198.248,415.242, 192,431.622, 192,448s 6.248,32.758, 18.744,45.254l 256,256.002C 491.738,774.248, 532.262,774.248, 557.254,749.256z"  />
<glyph unicode="&#xe005;" d="M 512,960C 229.23,960,0,730.77,0,448s 229.23-512, 512-512s 512,229.23, 512,512S 794.77,960, 512,960z M 512,32
		c-229.75,0-416,186.25-416,416S 282.25,864, 512,864s 416-186.25, 416-416S 741.75,32, 512,32zM 813.256,493.254l-256.002,256c-24.992,24.994-65.514,24.994-90.508,0c-24.994-24.994-24.994-65.516,0-90.51L 613.49,512
	L 256,512 c-35.346,0-64-28.654-64-64c0-35.346, 28.654-64, 64-64l 357.49,0 l-146.746-146.744c-24.994-24.994-24.994-65.518,0-90.512
	C 479.242,134.248, 495.622,128, 512,128s 32.758,6.248, 45.254,18.744l 256.002,256C 838.248,427.738, 838.248,468.262, 813.256,493.254z"  />
<glyph unicode="&#xe006;" d="M 1024,448C 1024,730.77, 794.77,960, 512,960s -512-229.23, -512-512s 229.23-512, 512-512S 1024,165.23, 1024,448z M 96,448
		c 0,229.75 186.25,416 416,416S 928,677.75, 928,448s -186.25-416, -416-416S 96,218.25, 96,448zM 557.254,146.744l 256,256.002c 24.994,24.992 24.994,65.514 0,90.508c -24.994,24.994 -65.516,24.994,-90.51,0L 576,346.51
	L 576,704 c 0,35.346 -28.654,64 -64,64c-35.346,0, -64-28.654, -64-64l0-357.49 l -146.744,146.746c -24.994,24.994 -65.518,24.994,-90.512,0
	C 198.248,480.758, 192,464.378, 192,448s 6.248-32.758, 18.744-45.254l 256-256.002C 491.738,121.752, 532.262,121.752, 557.254,146.744z"  />
<glyph unicode="&#xe007;" d="M 512,960C 794.77,960, 1024,730.77, 1024,448s -229.23-512, -512-512s -512,229.23, -512,512S 229.23,960, 512,960z M 512,32
		c 229.75,0 416,186.25 416,416S 741.75,864, 512,864s -416-186.25, -416-416S 282.25,32, 512,32zM 210.744,493.254l 256.002,256c 24.992,24.994 65.514,24.994 90.508,0c 24.994-24.994 24.994-65.516,0-90.51L 410.51,512
	L 768,512 c 35.346,0 64-28.654 64-64c0-35.346, -28.654-64, -64-64l-357.49,0 l 146.746-146.744c 24.994-24.994 24.994-65.518,0-90.512
	C 544.758,134.248, 528.378,128, 512,128s -32.758,6.248, -45.254,18.744l -256.002,256C 185.752,427.738, 185.752,468.262, 210.744,493.254z"  />
<glyph unicode="&#xe008;" d="M 512-64C 229.25-64,0,165.25,0,448C0,730.782, 229.25,960, 512,960
	s 512-229.218, 512-512C 1024,165.25, 794.75-64, 512-64z M 512,832C 299.938,832, 128,660.062, 128,448s 171.938-384, 384-384
	s 384,171.938, 384,384S 724.062,832, 512,832z M 384,640l 320-192l-320-192L 384,640 z"  />
<glyph unicode="&#xe009;" d="M 512-64C 229.25-64,0,165.218,0,448S 229.25,960, 512,960
	c 282.782,0, 512-229.218, 512-512S 794.782-64, 512-64z M 512,832C 299.938,832, 128,660.062, 128,448s 171.938-384, 384-384
	c 212.094,0, 384,171.938, 384,384S 724.094,832, 512,832z M 576,192l-128,0 l0,192 l-192,0 l0,128 l 192,0 l0,192 l 128,0 l0-192 l 192,0 l0-128 l-192,0 L 576,192 z"  />
<glyph unicode="&#xe00a;" d="M 512,960C 229.25,960,0,730.75,0,448c0-282.782, 229.25-512, 512-512
			c 282.782,0, 512,229.218, 512,512C 1024,730.75, 794.782,960, 512,960z M 512,64c-212.062,0-384,171.938-384,384S 299.938,832, 512,832
			c 212.094,0, 384-171.938, 384-384S 724.094,64, 512,64z M 256,384l 512,0 l0,128 L 256,512 L 256,384 z"  />
<glyph unicode="&#xe00d;" d="M 983.072,743.232l-294.304-296.096l 294.304-294.336c 12.32-12.288, 12.32-32.224,0-44.544
	l-133.632-133.6c-12.256-12.32-32.192-12.32-44.512,0l-293.824,293.824l-292.064-293.824c-12.288-12.32-32.224-12.32-44.544,0l-133.6,133.6
	c-12.288,12.32-12.288,32.256,0,44.544l 292.064,293.824L 40.928,738.656c-12.288,12.288-12.288,32.224,0,44.544l 133.6,133.6
	c 12.288,12.32, 32.224,12.32, 44.544,0l 291.52-291.52l 294.368,296.096c 12.32,12.32, 32.256,12.32, 44.512,0l 133.632-133.6
	C 995.36,775.456, 995.36,755.52, 983.072,743.232z"  />
<glyph unicode="&#xe00b;" d="M 1014.592,731.744l-90.848,90.848c-12.576,12.576-32.832,12.576-45.408,0L 413.856,332.224
	l-266.24,266.368c-12.704,12.704-33.312,12.704-46.016,0l-92.032-92.096c-12.704-12.672-12.704-33.28,0-46.016l 378.656-387.456
	c 7.328-7.36, 17.28-9.888, 26.848-8.64c 9.888-1.472, 20.192,1.024, 27.776,8.64L 1014.592,686.304C 1027.136,698.848, 1027.136,719.2, 1014.592,731.744z"  />
<glyph unicode="&#xe00e;" d="M 384,896l 640,0 l0-128 L 384,768 L 384,896 z M 384,512l 640,0 l0-128 L 384,384 L 384,512 z M 384,128l 640,0 l0-128 L 384,0 L 384,128 zM0,832A128,128 2700 1 1 256,832A128,128 2700 1 1 0,832zM0,448A128,128 2700 1 1 256,448A128,128 2700 1 1 0,448zM0,64A128,128 2700 1 1 256,64A128,128 2700 1 1 0,64z"  />
<glyph unicode="&#xe00f;" d="M 511.168,960 L 512.832,960 C 512.512,959.936 512.256,959.872 512,959.872 C 511.744,959.872 511.488,959.936 511.168,960 Z M 987.136,522.624 C 1036.48,473.28 1036.48,393.152 987.136,343.744 L 963.392,320 L 896,320 L 896,64 C 896-6.656 838.656-64 768-64 L 256-64 C 185.344-64 128-6.656 128,64 L 128,320 L 60.608,320 L 36.864,343.744 C -12.48,393.152 -12.48,473.28 36.864,522.624 L 439.36,925.056 C 459.776,945.472 485.44,956.544 512,959.872 C 538.56,956.544 564.224,945.472 584.64,925.056 L 987.136,522.624 Z M 768,448 L 868.608,448 C 865.92,458.88 861.44,469.376 852.992,477.952 L 539.968,790.976 C 531.968,798.976 522.176,803.392 512,806.208 C 501.824,803.392 492.032,798.912 484.096,790.976 L 171.072,477.952 C 162.56,469.376 158.080,458.88 155.392,448 L 256,448 L 256,128 C 256,92.608 284.608,64 320,64 L 384,64 L 384,384 L 640,384 L 640,64 L 704,64 C 739.392,64 768,92.608 768,128 L 768,448 Z"  />
<glyph unicode="&#xe010;" d="M 512.064,392.128c 105.888,0, 192,86.144, 192,192s-86.112,192-192,192
		c-105.888,0-192-86.112-192-192S 406.176,392.128, 512.064,392.128z M 512.064,744.128c 88.256,0, 160-71.744, 160-160s-71.744-160-160-160c-88.256,0-160,71.744-160,160
		S 423.808,744.128, 512.064,744.128zM 512,960C 300.224,960, 128,789.888, 128,575.968c0-224, 192.032-453.152, 332.032-614.208
		C 460.544-38.88, 483.008-64, 510.784-64c 0.064,0, 2.336,0, 2.464,0c 27.744,0, 50.24,25.12, 50.752,25.76
		c 140.064,161.056, 332.064,390.176, 332.064,614.208C 896.064,789.888, 723.808,960, 512,960z M 515.744,3.744c-0.672-0.64-2.624-2.048-4.32-3.136
		c-0.32,0.864-2.688,2.752-4.128,4.256C 390.016,139.808, 192,367.552, 192,575.968C 192,752.416, 335.584,896, 512,896c 176.512,0, 320.064-143.584, 320.064-320.064
		C 832.064,367.552, 634.048,139.808, 515.744,3.744z"  />
<glyph unicode="&#xe011;" d="M 768,960L 256,960C 202.944,960, 160,917.024, 160,864l0-832 c0-53.056, 42.976-96, 96-96l 512,0 c 52.992,0, 96,43.008, 96,96L 864,864 C 864,917.056, 820.992,960, 768,960z
		 M 800,32c0-17.632-14.368-32-32-32L 256,0 c-17.664,0-32,14.304-32,32l0,64.128 l 576,0 L 800,32 z M 800,128.128L 224,128.128 L 224,768 L 800,768L 800,128.128 z M 800,800L 224,800L 224,864 c0,17.664, 14.336,32, 32,32
		L 768,896c 17.632,0, 32-14.336, 32-32L 800,800 zM 576,848C 576,839.168, 568.8,832, 560,832l-96,0 C 455.136,832, 448,839.168, 448,848l0,0C 448,856.864, 455.136,864, 464,864l 96,0 
		C 568.8,864, 576,856.864, 576,848L 576,848zM 544,48.128c0-8.8-7.2-16-16-16l-32,0 c-8.832,0-16,7.2-16,16l0,0c0,8.864, 7.168,16, 16,16l 32,0 
		C 536.8,64.128, 544,56.992, 544,48.128L 544,48.128z"  />
<glyph unicode="&#xe012;" d="M 853.342,960L 170.686,960 C 76.812,960,0,883.19,0,789.31l0-682.622 C0,12.75, 76.812-64, 170.686-64l 682.656,0 
	C 947.218-64, 1024,12.75, 1024,106.69L 1024,789.31 C 1024,883.19, 947.218,960, 853.342,960z M 853.342,832c 7.988,0, 15.546-2.334, 22.020-6.342
	L 512,525.254L 148.646,825.654C 155.124,829.664, 162.69,832, 170.686,832L 853.342,832 z M 170.686,64c-1.924,0-3.82,0.146-5.684,0.408
	l 225.626,312.966l-29.256,29.254L 128,173.258L 128,784.396 L 512,320L 896,784.394l0-611.136 L 662.628,406.628l-29.254-29.254l 225.628-312.968
	c-1.858-0.26-3.746-0.406-5.662-0.406L 170.686,64 z"  />
<glyph unicode="&#xe014;" d="M 955.008,192C 998.88,267.36, 1024,354.496, 1024,448c0,282.752-229.248,512-512,512S0,730.752,0,448s 229.248-512, 512-512
		c 141.376,0, 269.376,57.248, 361.984,150.016L 783.36,176.64C 713.888,107.008, 617.888,64, 512,64C 300.256,64, 128,236.256, 128,448S 300.256,832, 512,832s 384-172.256, 384-384
		c0-45.504-8.736-88.992-23.36-129.504L 871.616,320L 768,320 L 768,702.624 l-256,0 c-141.376,0-256-114.624-256-256s 114.624-256, 256-256c 58.752,0, 112.256,20.64, 155.488,53.888
		C 690.752,213.504, 726.24,192, 768,192L 955.008,192 z M 640,511.744l0-65.12 c0-70.624-57.504-128-128-128s-128,57.376-128,128s 57.504,128, 128,128l 128,0 L 640,511.744 z"  />
<glyph unicode="&#xe013;" d="M 847.218,384c 35.2,0, 71.912,27.692, 81.582,61.538l 92.836,324.926C 1031.306,804.308, 1010.418,832, 975.218,832L 320,832 
	c0,70.692-57.308,128-128,128L0,960 l0-128 l 192,0 l0-544 c0-53.020, 42.98-96, 96-96l 608,0 c 35.346,0, 64,28.654, 64,64s-28.654,64-64,64L 320,320 l0,64 L 847.218,384 z
	 M 320,704l 578.806,0 l-54.858-192L 320,512 L 320,704 zM 384,16c0-44-36-80-80-80l-32,0 c-44,0-80,36-80,80l0,32 c0,44, 36,80, 80,80l 32,0 c 44,0, 80-36, 80-80L 384,16 zM 960,16c0-44-36-80-80-80l-32,0 c-44,0-80,36-80,80l0,32 c0,44, 36,80, 80,80l 32,0 c 44,0, 80-36, 80-80L 960,16 z"  />
<glyph unicode="&#xe015;" d="M 1024,601.844C 1024,764.302, 892.3,896, 729.844,896C 643.482,896, 565.814,858.782, 512,799.51C 458.186,858.782, 380.518,896, 294.156,896
	C 131.698,896,0,764.302,0,601.844C0,515.482, 37.218,437.814, 96.49,384L 96,384 l 320-320c 32-32, 64-64, 96-64s 64,32, 96,64l 320,320l-0.49,0 
	C 986.782,437.814, 1024,515.482, 1024,601.844z M 841.468,478.768L 517.49,154.51c-1.678-1.678-3.532-3.532-5.49-5.48
	c-1.96,1.95-3.814,3.802-5.49,5.48L 182.532,478.766C 147.366,510.694, 128,554.404, 128,601.844C 128,693.462, 202.538,768, 294.156,768
	c 47.44,0, 91.15-19.366, 123.076-54.532L 512,609.088l 94.768,104.378C 638.696,748.634, 682.404,768, 729.844,768
	C 821.462,768, 896,693.462, 896,601.844C 896,554.404, 876.632,510.694, 841.468,478.768z"  />
<glyph unicode="&#xe016;" d="M 1024,562.95l-353.78,51.408L 512,934.94l-158.216-320.582L0,562.95l 256-249.538L 195.568-38.94L 512,127.418l 316.432-166.358
	l-60.434,352.352L 1024,562.95z M 512,206.502l-223.462-117.48l 42.676,248.83l-180.786,176.222l 249.84,36.304L 512,776.774l 111.736-226.396
	l 249.836-36.304l-180.788-176.222l 42.678-248.83L 512,206.502z"  />
<glyph unicode="&#xe017;" d="M 608,960l-192,0 C 186.25,960,0,773.75,0,544c0-148.876, 78.812-278.5, 196.376-352L 192,192 l0-256 
	l 288,192l 128,0 c 229.75,0, 416,186.25, 416,416S 837.75,960, 608,960z M 608,256l-128,0 l-160-96l0,113.624 C 208.376,313.312, 128,418.812, 128,544
	c0,159.062, 128.938,288, 288,288l 192,0 c 159.062,0, 288-128.938, 288-288S 767.062,256, 608,256z"  />
<glyph unicode="&#xe019;" d="M 933.248,624.896c-40,10.496-134.048,10.368-271.616,14.016
		c 6.496,30.016, 8,57.088, 8,105.152C 669.632,858.88, 585.984,960, 512,960c-52.256,0-95.328-42.72-96-95.264c-0.704-64.448-20.64-175.744-128-232.192
		c-7.872-4.16-30.4-15.264-33.696-16.704L 256,614.4C 239.2,628.896, 215.904,640, 192,640L 96,640 c-52.928,0-96-43.072-96-96l0-512 c0-52.928, 43.072-96, 96-96l 96,0 
		c 38.080,0, 69.952,23.008, 85.376,55.264c 0.384-0.128, 1.056-0.32, 1.504-0.384c 2.112-0.576, 4.608-1.184, 7.648-1.984
		C 287.104-11.264, 287.392-11.328, 288-11.488c 18.432-4.576, 53.92-13.056, 129.76-30.496C 434.016-45.696, 519.904-64, 608.864-64l 174.944,0 
		c 53.312,0, 91.744,20.512, 114.624,61.696c 0.32,0.64, 7.68,15.008, 13.696,34.432c 4.512,14.624, 6.176,35.328, 0.736,56.32
		c 34.368,23.616, 45.44,59.328, 52.64,82.56c 12.064,38.112, 8.448,66.752, 0.064,87.264c 19.328,18.24, 35.808,46.048, 42.752,88.512
		c 4.32,26.304-0.32,53.376-12.448,75.904c 18.112,20.352, 26.368,45.952, 27.328,69.632l 0.384,6.688C 1023.808,503.2, 1024,505.792, 1024,515.008
		C 1024,555.424, 996,606.976, 933.248,624.896z M 224,32c0-17.696-14.304-32-32-32L 96,0 c-17.696,0-32,14.304-32,32L 64,544 c0,17.696, 14.304,32, 32,32l 96,0 
		c 17.696,0, 32-14.304, 32-32L 224,32 z M 959.264,494.88C 958.624,479.072, 952,448, 896,448c-48,0-64,0-64,0c-8.864,0-16-7.168-16-16S 823.136,416, 832,416
		c0,0, 14.016,0, 62.016,0s 54.304-39.808, 51.2-59.008C 941.248,333.12, 930.048,288, 876,288C 822.016,288, 800,288, 800,288c-8.864,0-16-7.136-16-16
		c0-8.8, 7.136-16, 16-16c0,0, 38.016,0, 63.008,0c 54.016,0, 49.248-41.184, 41.504-65.76C 894.304,157.952, 888.064,128, 820,128
		c-23.008,0-52.192,0-52.192,0c-8.864,0-16-7.136-16-16c0-8.8, 7.136-16, 16-16c0,0, 22.176,0, 50.176,0
		c 35.008,0, 36.64-33.12, 32.992-44.992c-4-12.992-8.736-22.624-8.928-23.072C 832.384,10.496, 816.8,0, 783.808,0l-174.944,0 
		c-87.872,0-175.040,19.936-177.28,20.448c-132.928,30.624-139.936,32.992-148.288,35.36c0,0-27.072,4.576-27.072,28.192L 256,525.984
		c0,15.008, 9.568,28.576, 25.408,33.344c 1.984,0.768, 4.672,1.6, 6.592,2.4c 146.176,60.544, 190.688,193.28, 192,302.272c 0.192,15.328, 12,32, 32,32
		c 33.824,0, 93.632-67.904, 93.632-151.936C 605.632,668.192, 602.56,655.072, 576,576c 320,0, 317.76-4.608, 345.984-12C 956.992,553.984, 960,524.992, 960,515.008
		C 960,504.032, 959.68,505.632, 959.264,494.88zM 144,128C 117.504,128, 96,106.496, 96,80S 117.504,32, 144,32
		S 192,53.504, 192,80S 170.496,128, 144,128z M 144,64C 135.2,64, 128,71.2, 128,80S 135.2,96, 144,96S 160,88.8, 160,80S 152.8,64, 144,64z"  />
<glyph unicode="&#xe018;" d="M 933.248,271.104c-40-10.496-134.048-10.368-271.616-14.016
		c 6.496-30.016, 8-57.088, 8-105.152C 669.632,37.12, 585.984-64, 512-64c-52.256,0-95.328,42.72-96,95.264c-0.704,64.448-20.64,175.744-128,232.192
		c-7.872,4.16-30.4,15.264-33.696,16.704L 256,281.6C 239.2,267.104, 215.904,256, 192,256L 96,256 c-52.928,0-96,43.072-96,96l0,512 c0,52.928, 43.072,96, 96,96l 96,0 
		c 38.080,0, 69.952-23.008, 85.376-55.264c 0.384,0.128, 1.056,0.32, 1.504,0.384c 2.112,0.576, 4.608,1.184, 7.648,1.984
		C 287.104,907.264, 287.392,907.328, 288,907.488c 18.432,4.576, 53.92,13.056, 129.76,30.496C 434.016,941.696, 519.904,960, 608.864,960l 174.944,0 
		c 53.312,0, 91.744-20.512, 114.624-61.696c 0.32-0.64, 7.68-15.008, 13.696-34.432c 4.512-14.624, 6.176-35.328, 0.736-56.32
		c 34.368-23.616, 45.44-59.328, 52.64-82.56c 12.064-38.112, 8.448-66.752, 0.064-87.264c 19.328-18.24, 35.808-46.048, 42.752-88.512
		c 4.32-26.304-0.32-53.376-12.448-75.904c 18.112-20.352, 26.368-45.952, 27.328-69.632l 0.384-6.688C 1023.808,392.8, 1024,390.208, 1024,380.992
		C 1024,340.576, 996,289.024, 933.248,271.104z M 224,864c0,17.696-14.304,32-32,32L 96,896 c-17.696,0-32-14.304-32-32L 64,352 c0-17.696, 14.304-32, 32-32l 96,0 
		c 17.696,0, 32,14.304, 32,32L 224,864 z M 959.264,401.12C 958.624,416.928, 952,448, 896,448c-48,0-64,0-64,0c-8.864,0-16,7.168-16,16S 823.136,480, 832,480
		c0,0, 14.016,0, 62.016,0s 54.304,39.808, 51.2,59.008C 941.248,562.88, 930.048,608, 876,608C 822.016,608, 800,608, 800,608c-8.864,0-16,7.136-16,16
		c0,8.8, 7.136,16, 16,16c0,0, 38.016,0, 63.008,0c 54.016,0, 49.248,41.184, 41.504,65.76C 894.304,738.048, 888.064,768, 820,768
		c-23.008,0-52.192,0-52.192,0c-8.864,0-16,7.136-16,16c0,8.8, 7.136,16, 16,16c0,0, 22.176,0, 50.176,0
		c 35.008,0, 36.64,33.12, 32.992,44.992c-4,12.992-8.736,22.624-8.928,23.072C 832.384,885.504, 816.8,896, 783.808,896l-174.944,0 
		c-87.872,0-175.040-19.936-177.28-20.448c-132.928-30.624-139.936-32.992-148.288-35.36c0,0-27.072-4.576-27.072-28.192L 256,370.016
		c0-15.008, 9.568-28.576, 25.408-33.344c 1.984-0.768, 4.672-1.6, 6.592-2.4c 146.176-60.544, 190.688-193.28, 192-302.272c 0.192-15.328, 12-32, 32-32
		c 33.824,0, 93.632,67.904, 93.632,151.936C 605.632,227.808, 602.56,240.928, 576,320c 320,0, 317.76,4.608, 345.984,12C 956.992,342.016, 960,371.008, 960,380.992
		C 960,391.968, 959.68,390.368, 959.264,401.12zM 144,768C 117.504,768, 96,789.504, 96,816S 117.504,864, 144,864
		S 192,842.496, 192,816S 170.496,768, 144,768z M 144,832C 135.2,832, 128,824.8, 128,816S 135.2,800, 144,800S 160,807.2, 160,816S 152.8,832, 144,832z"  />
<glyph unicode="&#xe01a;" d="M 575.87-64L 384-64 L 384,448 l-128,0 l0,176.45 l 128,0.058l-0.208,103.952C 383.792,872.412, 422.826,960, 592.39,960l 141.176,0 l0-176.484 l-88.23,0 
	c-66.032,0-69.206-24.656-69.206-70.684l-0.262-88.324l 158.69,0 l-18.704-176.45L 576,448L 575.87-64z"  />
<glyph unicode="&#xe01b;" d="M 1024,765.582c-37.676-16.708-78.164-28.002-120.66-33.080c 43.372,26, 76.686,67.17, 92.372,116.23
	c-40.596-24.078-85.556-41.56-133.41-50.98c-38.32,40.83-92.922,66.34-153.346,66.34c-116.022,0-210.088-94.058-210.088-210.078
	c0-16.466, 1.858-32.5, 5.44-47.878c-174.6,8.764-329.402,92.4-433.018,219.506c-18.084-31.028-28.446-67.116-28.446-105.618
	c0-72.888, 37.088-137.192, 93.46-174.866c-34.438,1.092-66.832,10.542-95.154,26.278c-0.020-0.876-0.020-1.756-0.020-2.642
	c0-101.788, 72.418-186.696, 168.522-206c-17.626-4.8-36.188-7.372-55.348-7.372c-13.538,0-26.698,1.32-39.528,3.772
	c 26.736-83.46, 104.32-144.206, 196.252-145.896c-71.9-56.35-162.486-89.934-260.916-89.934c-16.958,0-33.68,0.994-50.116,2.94
	c 92.972-59.61, 203.402-94.394, 322.042-94.394c 386.422,0, 597.736,320.124, 597.736,597.744c0,9.108-0.206,18.168-0.61,27.18
	C 960.22,686.454, 995.836,723.454, 1024,765.582z"  />
<glyph unicode="&#xe01c;" d="M 559.066,896c0,0-200.956,0-267.94,0C 171.006,896, 57.956,804.994, 57.956,699.578c0-107.726, 81.882-194.666, 204.088-194.666
		c 8.498,0, 16.756,0.17, 24.842,0.752c-7.93-15.186-13.602-32.288-13.602-50.042c0-29.938, 16.104-54.21, 36.468-74.024
		c-15.386,0-30.242-0.448-46.452-0.448C 114.518,381.152,0,286.392,0,188.13c0-96.778, 125.542-157.314, 274.334-157.314
		c 169.624,0, 263.306,96.244, 263.306,193.028c0,77.6-22.896,124.072-93.686,174.134c-24.216,17.144-70.53,58.836-70.53,83.344
		c0,28.72, 8.196,42.868, 51.428,76.646c 44.312,34.624, 75.672,83.302, 75.672,139.916c0,67.406-30.020,133.098-86.372,154.772l 84.954,0 
		L 559.066,896z M 465.48,240.542c 2.126-8.972, 3.284-18.206, 3.284-27.628c0-78.2-50.392-139.31-194.974-139.31
		c-102.842,0-177.116,65.104-177.116,143.3c0,76.642, 92.126,140.444, 194.964,139.332c 24-0.254, 46.368-4.116, 66.67-10.69
		C 414.134,306.72, 454.184,284.784, 465.48,240.542z M 300.818,532.224c-69.038,2.064-134.636,77.226-146.552,167.86
		c-11.916,90.666, 34.37,160.042, 103.388,157.99c 69.010-2.074, 134.638-74.814, 146.558-165.458
		C 416.118,601.956, 369.822,530.158, 300.818,532.224zM 832,704L 832,896L 768,896L 768,704L 576,704L 576,640L 768,640L 768,448L 832,448L 832,640L 1024,640L 1024,704 	z"  />
<glyph unicode="&#xe01d;" d="M 853.35,960L 170.648,960 C 76.398,960,0,883.58,0,789.314l0-682.63 C0,12.418, 76.398-64, 170.648-64l 682.702,0 
	C 947.6-64, 1024,12.418, 1024,106.684L 1024,789.314 C 1024,883.58, 947.6,960, 853.35,960z M 561.644,275.882
	c-46.52,3.614-66.042,26.656-102.504,48.808c-20.060-105.178-44.562-206.018-117.138-258.688
	c-22.404,158.968, 32.894,278.364, 58.57,405.114c-43.786,73.706, 5.27,222.034, 97.62,185.474
	c 113.626-44.948-98.4-274.008, 43.932-302.616c 148.62-29.868, 209.288,257.858, 117.142,351.424
	c-133.158,135.106-387.598,3.080-356.31-190.356c 7.614-47.292, 56.472-61.638, 19.524-126.902c-85.22,18.892-110.65,86.102-107.376,175.712
	c 5.268,146.674, 131.784,249.364, 258.686,263.566c 160.484,17.964, 311.106-58.908, 331.906-209.876
	C 829.106,447.154, 733.246,262.614, 561.644,275.882z"  />
<glyph unicode="&#xe01e;" d="M 136.294,209.070c-75.196,0-136.292-61.334-136.292-136.076c0-75.154, 61.1-135.802, 136.292-135.802
		c 75.466,0, 136.494,60.648, 136.494,135.802C 272.786,147.736, 211.764,209.070, 136.294,209.070zM 0.156,612.070l0-196.258 c 127.784,0, 247.958-49.972, 338.458-140.512c 90.384-90.318, 140.282-211.036, 140.282-339.3l 197.122,0 
		C 676.016,308.82, 372.736,612.070, 0.156,612.070zM 0.388,960l0-196.356 c 455.782,0, 826.756-371.334, 826.756-827.644L 1024-64 C 1024,500.47, 564.746,960, 0.388,960z"  />
<glyph unicode="&#xe01f;" d="M 128,448.008c0-148.026, 88.322-275.968, 216.43-336.578L 161.252,600.214C 139.944,553.706, 128,502.232, 128,448.008zM 771.228,466.872c0,46.234-17.054,78.236-31.654,103.142c-19.458,30.82-37.72,56.894-37.72,87.716
			c0,34.374, 26.766,66.376, 64.486,66.376c 1.704,0, 3.32-0.204, 4.976-0.302C 703,784.774, 611.976,822, 512.008,822
			c-134.16,0-252.186-67.046-320.844-168.568c 9.010-0.282, 17.506-0.454, 24.712-0.454c 40.154,0, 102.34,4.752, 102.34,4.752
			c 20.69,1.182, 23.132-28.434, 2.458-30.822c0,0-20.81-2.368-43.952-3.55l 139.834-405.106l 84.044,245.456l-59.822,159.65
			c-20.688,1.184-40.278,3.55-40.278,3.55c-20.702,1.192-18.272,32.002, 2.438,30.822c0,0, 63.4-4.752, 101.134-4.752
			c 40.146,0, 102.35,4.752, 102.35,4.752c 20.702,1.182, 23.14-28.434, 2.446-30.822c0,0-20.834-2.372-43.948-3.55L 703.7,221.34
			l 38.312,124.632C 758.592,397.722, 771.228,434.872, 771.228,466.872zM 518.742,415.296l-115.226-326.058c 34.416-9.858, 70.794-15.238, 108.488-15.238c 44.716,0, 87.604,7.518, 127.518,21.2
			c-1.018,1.602-1.974,3.304-2.75,5.154L 518.742,415.296zM 848.962,627.428c 1.652-11.91, 2.588-24.686, 2.588-38.458c0-37.93-7.292-80.596-29.202-133.95l-117.286-330.272
			C 819.224,189.576, 896,310.036, 896,448.006C 896,513.036, 878.94,574.166, 848.962,627.428zM 512,960C 229.23,960,0,730.77,0,448s 229.23-512, 512-512s 512,229.23, 512,512S 794.77,960, 512,960z M 512,0
		C 264.576,0, 64,200.576, 64,448S 264.576,896, 512,896s 448-200.576, 448-448S 759.424,0, 512,0z"  />
<glyph unicode="&#xe020;" d="M 852,960L 172,960 C 77.4,960,0,882.6,0,788l0-680 c0-94.6, 77.4-172, 172-172l 680,0 c 94.6,0, 172,77.4, 172,172L 1024,788 C 1024,882.6, 946.6,960, 852,960z M 384,128l-128,0 
	L 256,576 l 128,0 L 384,128 z M 320,640c-35.346,0-64,28.654-64,64s 28.654,64, 64,64s 64-28.654, 64-64S 355.346,640, 320,640z M 832,128l-128,0 L 704,384 
	c0,35.346-28.654,64-64,64s-64-28.654-64-64l0-256 l-128,0 L 448,576 l 128,0 l0-79.472 C 602.398,532.792, 642.752,576, 688,576c 79.53,0, 144-71.634, 144-160
	L 832,128 z"  />
<glyph unicode="&#xe021;" d="M 608.876,306.532c-17.282-17.426-2.668-49.128-2.668-49.128l 130.090-217.218c0,0, 21.36-28.64, 39.864-28.64
		c 18.59,0, 36.954,15.27, 36.954,15.27l 102.844,147.008c0,0, 10.36,18.546, 10.598,34.792c 0.372,23.106-34.454,29.434-34.454,29.434
		l-243.488,78.192C 648.614,316.238, 624.758,322.57, 608.876,306.532zM 596.532,416.016c 12.46-21.128, 46.828-14.972, 46.828-14.972l 242.938,71.006c0,0, 33.106,13.466, 37.832,31.418
		c 4.64,17.954-5.46,39.622-5.46,39.622l-116.098,136.752c0,0-10.062,17.292-30.938,19.032c-23.016,1.958-37.18-25.898-37.18-25.898
		l-137.27-216.010C 597.184,456.962, 585.050,435.45, 596.532,416.016zM 481.754,500.232c 28.608,7.044, 33.148,48.604, 33.148,48.604l-1.944,345.87c0,0-4.314,42.666-23.486,54.232
		c-30.070,18.242-38.982,8.718-47.596,7.444L 240.18,881.438c0,0-19.754-6.536-30.042-23.018c-14.69-23.352, 14.928-57.544, 14.928-57.544
		L 434.71,515.12C 434.71,515.12, 455.4,493.724, 481.754,500.232zM 431.944,360.262c 0.722,26.676-32.030,42.7-32.030,42.7L 183.118,512.486c0,0-32.126,13.246-47.722,4.016
		c-11.95-7.060-22.536-19.84-23.572-31.134l-14.12-173.812c0,0-2.116-30.114, 5.69-43.82c 11.054-19.442, 47.428-5.902, 47.428-5.902
		l 253.096,55.942C 413.75,324.386, 430.992,324.98, 431.944,360.262zM 494.88,266.458c-21.726,11.156-47.724-11.95-47.724-11.95l-169.468-186.566c0,0-21.144-28.528-15.768-46.050
		c 5.066-16.418, 13.454-24.578, 25.318-30.328l 170.192-53.726c0,0, 20.634-4.286, 36.258,0.242c 22.18,6.43, 18.094,41.152, 18.094,41.152
		l 3.848,252.602C 515.628,231.832, 514.762,256.168, 494.88,266.458z"  />
<glyph unicode="&#xe023;" d="M 800,544 C 729.42,544 672,486.58 672,416 C 672,345.42 729.42,288 800,288 C 870.58,288 928,345.42 928,416 C 928,486.58 870.58,544 800,544 Z M 800,640 L 800,640 C 923.71,640 1024,539.712 1024,416 C 1024,292.29 923.71,192 800,192 C 676.29,192 576,292.29 576,416 C 576,539.712 676.29,640 800,640 ZM0,416A224,224 1260 1 1 448,416A224,224 1260 1 1 0,416z"  />
<glyph unicode="&#xe022;" d="M 648.342,896c 28.332,0, 56.918-5.804, 82.666-16.784c 27.084-11.548, 49.324-27.924, 66.104-48.672
		c 33.598-41.542, 43.038-98.132, 28.050-168.218c-16.306-76.378-54.398-139.96-110.16-183.87c-54.356-42.802-122.998-65.428-198.508-65.428
		l-188.27,0 l-51.79,0 l-10.802-50.65L 211.87,110.3L 165.972,110.3 l-13.942,0 L 79.446,110.3 L 250.622,896L 648.342,896  M 285.786,459.986l 80.078,0 l 123.758,0 
		c 47.436,0, 95.494,18.17, 135.318,51.164c 38.82,32.162, 66.274,75.522, 77.396,122.2c 13.902,52.524, 4.63,105.152-25.514,144.554
		c-29.176,38.14-74.864,60.014-125.346,60.014l-129.132,0 l-51.15,0 l-11.276-49.892l-56.482-249.932L 285.786,459.986 M 648.342,960L 199.064,960 
		L0,46.3l 152.032,0 L 128-64l 263.66,0 l 64.564,302.726l 188.27,0 c 180.25,0, 330.938,111.078, 371.258,299.936
		c 33.716,157.68-40.804,251.932-135.118,290.564c 25.698-12.576, 48.094-30.486, 64.502-52.482c 34.536-46.3, 44.236-109.372, 28.836-187.466
		c-15.56-79.026-50.416-145.734-101.166-194.044c-9.282-9.702-19.222-18.746-29.804-27.080c-54.356-42.802-122.998-65.428-198.508-65.428
		l-12.112,0 L 404.434,302.726 L 339.87,0l-132.424,0 l 10.086,46.3l 46.128,0 l 64.564,302.726l 188.27,0 c 180.25,0, 330.938,111.078, 371.258,299.936
		C 933.474,862.796, 780.154,960, 648.342,960L 648.342,960z M 365.864,523.986l 56.482,249.932l 129.132,0 c 64.592,0, 107.602-55.538, 88.786-124.956
		c-16.136-69.44-83.386-124.976-150.64-124.976L 365.864,523.986 L 365.864,523.986z"  />
<glyph unicode="&#x20;" horiz-adv-x="512" />
</font>
</defs>
</svg>
