<?xml version="1.0" standalone="no"?>
<!DOCTYPE svg PUBLIC "-//W3C//DTD SVG 1.1//EN" "http://www.w3.org/Graphics/SVG/1.1/DTD/svg11.dtd" >
<svg xmlns="http://www.w3.org/2000/svg">
<metadata>
This is a custom SVG webfont generated by Font Squirrel.
Copyright   :  1989 1990 1993 1994 1996 1998 1999 2000 Adobe Systems Incorporated All rights reserved
Designer    : David Siegel
Foundry     : Adobe Systems Incorporated
Foundry URL : httpwwwadobecomtype
</metadata>
<defs>
<font id="webfontvlgrSRSK" horiz-adv-x="1343" >
<font-face units-per-em="2048" ascent="1393" descent="-655" />
<missing-glyph horiz-adv-x="372" />
<glyph unicode=" "  horiz-adv-x="372" />
<glyph unicode="&#x09;" horiz-adv-x="372" />
<glyph unicode="&#xa0;" horiz-adv-x="372" />
<glyph unicode="!" horiz-adv-x="477" d="M336 1214v-696q20 -20 20 -86q0 -35 -47 -63.5t-102 -28.5q-45 0 -67.5 33t-22.5 69q0 45 24 74v690q-29 41 -28 76q0 53 32.5 76.5t124.5 23.5q49 0 70.5 -20.5t21.5 -69.5q1 -41 -26 -78zM205 -16q-33 0 -58.5 30.5t-25.5 67.5q0 59 42 109.5t95 50.5q86 0 86 -123 q0 -70 -29.5 -102.5t-109.5 -32.5z" />
<glyph unicode="&#x22;" horiz-adv-x="706" d="M262 1219v-195q12 -31 12 -78q0 -39 -27.5 -65.5t-86.5 -26.5q-41 0 -61.5 12.5t-20.5 51.5q0 41 37 86v206q-29 45 -29 60q0 47 29.5 76.5t89.5 29.5q43 0 65.5 -27.5t22.5 -54.5q0 -50 -31 -75zM600 1219v-195q12 -31 12 -78q0 -39 -27.5 -65.5t-86.5 -26.5 q-41 0 -61.5 12.5t-20.5 51.5q0 41 37 86v206q-29 45 -29 60q0 47 29.5 76.5t89.5 29.5q41 0 64.5 -27.5t23.5 -54.5q0 -50 -31 -75z" />
<glyph unicode="#" horiz-adv-x="1312" d="M856 1004l59 227q-20 45 6.5 84t94.5 39q55 0 78.5 -28t23.5 -60q0 -20 -13 -41t-30 -25l-51 -196h115q25 8 49 8q33 0 55.5 -24.5t22.5 -63.5q0 -109 -74 -109q-39 0 -51 23h-156l-80 -310h129q31 10 49 11q33 0 56.5 -26t21.5 -67q0 -106 -71 -106q-41 0 -54 22h-172 l-63 -256q14 -33 14 -61q0 -31 -32.5 -53.5t-80.5 -22.5q-113 0 -112 94q0 57 47 74l57 225h-205l-65 -256q14 -25 14 -61q0 -31 -32.5 -53.5t-79.5 -22.5q-49 0 -80 22.5t-31 65.5q0 31 15.5 52.5t33.5 27.5l58 225h-123q-29 -20 -70 -20q-33 0 -54.5 29.5t-21.5 64.5 q0 53 22.5 85t57.5 32q43 0 64 -25h165l82 310h-143q-27 -23 -70 -23q-33 0 -54 32t-19 66q0 51 21.5 83t56.5 32q43 0 65 -24h182l58 227q-20 45 6 84t94 39q55 0 78.5 -28t23.5 -60q0 -20 -13 -41t-30 -25l-49 -196h205zM815 838h-203l-80 -310h201z" />
<glyph unicode="$" d="M608 76v-135q20 -41 21 -60q0 -39 -30 -70.5t-64 -31.5q-39 0 -69 23.5t-30 64.5q0 14 10.5 35.5t10.5 23.5v135q-180 6 -285.5 86t-105.5 175q0 35 28.5 58t63.5 23q61 0 71 -59q6 -49 76 -87t152 -42v412q-86 -39 -172 -39q-70 0 -139.5 58.5t-69.5 174.5 q0 172 125 293t256 148v84q0 4 -6.5 22t-6.5 29q0 33 21.5 54.5t62.5 21.5q45 0 70 -19.5t25 -46.5q0 -18 -15 -47v-80q119 0 204 -30.5t117 -64.5t32 -63q0 -53 -28 -79.5t-65 -26.5q-14 0 -25.5 2t-17.5 5t-13 10t-9 10.5l-8.5 14.5t-8.5 15q-39 55 -178 53v-278 q68 27 142 26q39 0 74.5 -10t78.5 -38.5t69.5 -96t26.5 -164.5q0 -190 -127 -324t-264 -165zM457 795v309q-78 -14 -138.5 -85t-60.5 -173q0 -45 21.5 -67.5t48.5 -22.5q55 0 129 39zM608 684v-448q84 27 146.5 116.5t62.5 188.5q0 170 -104 170q-60 0 -105 -27z" />
<glyph unicode="%" horiz-adv-x="1253" d="M1024 1249q0 -47 -53 -65l-576 -1100q-2 -51 -32.5 -76.5t-75.5 -25.5q-49 0 -73 18t-24 66q0 12 8.5 24t21.5 25.5t18 21.5l587 1116q0 41 24.5 67t55.5 26q41 0 80 -27t39 -70zM383 1343q94 0 154.5 -53t60.5 -153q0 -121 -104.5 -219.5t-219.5 -98.5 q-90 0 -153.5 55.5t-63.5 159.5q0 123 103.5 216t222.5 93zM367 1204q-51 0 -92.5 -49t-41.5 -111q0 -86 60 -86q45 0 87 52.5t42 113.5q0 33 -15 56.5t-40 23.5zM995 535h4q78 0 137.5 -64.5t59.5 -181.5q0 -141 -106.5 -233.5t-251.5 -92.5q-80 0 -141.5 61.5t-61.5 172.5 q0 160 109.5 249t250.5 89zM958 395q-59 0 -103 -52t-44 -140q0 -100 61 -101q57 0 102.5 52.5t45.5 134.5q-1 106 -62 106z" />
<glyph unicode="&#x26;" horiz-adv-x="1265" d="M647 799l252 -322q70 111 68 166q0 20 16 36.5t43 16.5q51 0 90 -30.5t39 -65.5q0 -18 -12.5 -37.5t-30.5 -19.5q-47 -121 -106 -199l34 -49l62 -77q25 -30 33 -30t39.5 24t54.5 24q55 0 55 -62q0 -51 -69.5 -116.5t-129.5 -65.5q-53 0 -59 53l-133 168 q-221 -252 -508 -252q-141 0 -241.5 93t-100.5 296q0 172 95 296t243 200q-131 170 -131 313q0 74 78 132.5t217 58.5q166 0 256 -51.5t90 -147.5q0 -200 -244 -352zM553 1214q-53 0 -87 -21.5t-34 -59.5q0 -92 113 -211q76 37 122 103.5t46 111.5q0 77 -160 77zM793 342 l-310 377q-117 -63 -184.5 -143t-67.5 -211q0 -109 55.5 -172.5t133.5 -63.5q197 0 373 213z" />
<glyph unicode="'" horiz-adv-x="366" d="M262 1219v-195q12 -31 12 -78q0 -39 -27.5 -65.5t-86.5 -26.5q-41 0 -61.5 12.5t-20.5 51.5q0 41 37 86v206q-29 45 -29 60q0 47 29.5 76.5t89.5 29.5q41 0 64.5 -27.5t23.5 -54.5q0 -50 -31 -75z" />
<glyph unicode="(" horiz-adv-x="679" d="M485 1399q18 0 37 -4t45.5 -17.5t43 -46.5t16.5 -80q0 -41 -30 -61.5t-65 -13.5q-213 -168 -213 -715q0 -225 48.5 -423t156.5 -298q31 16 58.5 -12.5t27.5 -77.5q0 -61 -30.5 -92t-59.5 -31q-31 0 -70.5 20.5t-66.5 51.5q-256 344 -256 870q0 541 279 854q4 33 27 54.5 t52 21.5z" />
<glyph unicode=")" horiz-adv-x="679" d="M203 1399q25 0 48 -22.5t28 -53.5q279 -313 278 -854q0 -526 -256 -870q-27 -31 -66.5 -51.5t-70.5 -20.5q-29 0 -59.5 30.5t-30.5 92.5q0 49 27.5 77.5t58.5 12.5q109 100 157 298t48 423q0 547 -213 715q-35 -6 -65 14t-30 61q0 47 16.5 80t43 46.5t46.5 17.5t40 4z " />
<glyph unicode="*" horiz-adv-x="780" d="M301 752q-25 0 -43 15t-18 38q0 37 24 72q45 51 68 110l-156 -57q-53 -18 -78.5 0t-25.5 47q0 72 84 72q57 0 178 38q-29 27 -98 80q-59 49 -60 78q0 25 18.5 46.5t51.5 21.5q45 0 55 -23q16 -39 98 -133l41 127q-4 31 15.5 50.5t52.5 19.5q29 0 50.5 -17.5t21.5 -38.5 q0 -25 -35 -73q-41 -59 -60 -103l164 70q27 8 44.5 -9.5t17.5 -52.5q0 -33 -19.5 -52t-48.5 -19q-53 0 -147 -21q66 -78 133 -123q41 -29 41 -51q0 -74 -56 -73q-35 0 -63.5 20t-40.5 49l-84 107l-47 -144q-2 -71 -78 -71z" />
<glyph unicode="+" horiz-adv-x="1134" d="M463 549v215q-23 35 -23 72q0 29 27 51t70 22q59 0 90.5 -26.5t31.5 -61.5q0 -25 -16 -57v-215h223q6 2 27.5 12t34.5 10q86 0 86 -110q0 -51 -23.5 -80t-62.5 -29q-29 0 -62 17h-223v-230q23 -27 23 -53q0 -45 -30 -70.5t-67 -25.5q-57 0 -93 22.5t-36 61.5q0 49 23 80 v215h-219q-61 -18 -66 -19q-82 0 -82 92q0 123 88 123q18 0 58 -16h221z" />
<glyph unicode="," horiz-adv-x="444" d="M104 -227q-33 0 -44 12t-11 39q0 49 68 55q55 2 82.5 36t29.5 87q-23 -20 -55 -20q-37 0 -57.5 32.5t-20.5 75.5q0 66 30 106t85 40q117 0 117 -185q0 -135 -72 -206.5t-152 -71.5z" />
<glyph unicode="-" horiz-adv-x="702" d="M475 471l-239 -22q-27 -35 -72 -35q-31 0 -55.5 32.5t-24.5 77.5q0 51 25.5 81t58.5 30q37 0 53 -21l244 21q29 25 57 24q41 0 67.5 -29.5t26.5 -78.5q0 -41 -26.5 -74t-59.5 -33q-43 0 -55 27z" />
<glyph unicode="." horiz-adv-x="458" d="M201 -16q-37 0 -68 32.5t-31 89.5q0 51 35 94.5t92 43.5q98 0 99 -123q0 -57 -32 -97t-95 -40z" />
<glyph unicode="/" horiz-adv-x="692" d="M664 1262q0 -27 -13.5 -48.5t-34.5 -25.5l-368 -1086q14 -25 14 -63q0 -31 -33.5 -52.5t-81.5 -21.5q-53 0 -90 27.5t-37 81.5q0 51 68 71l369 1088q-2 51 19.5 76.5t88.5 25.5q99 1 99 -73z" />
<glyph unicode="0" d="M793 1337q84 0 164.5 -28.5t152.5 -84t116 -151.5t44 -219q0 -199 -59.5 -359.5t-147.5 -256t-195.5 -159t-196.5 -87t-159 -23.5q-201 0 -321.5 122t-120.5 349q0 184 46 338t120.5 255.5t170 172t194 101t192.5 30.5zM784 1165q-88 0 -174 -40t-162.5 -120.5t-124 -224 t-47.5 -329.5q0 -158 67 -234t169 -76q59 0 128 20.5t145.5 73t138 128t102.5 199.5t41 276q0 154 -75 240.5t-208 86.5z" />
<glyph unicode="1" d="M719 1090l-330 -195q-4 -25 -27.5 -41t-52.5 -16q-37 0 -62.5 28.5t-25.5 69.5t26.5 69.5t61.5 34.5l424 248q84 49 121 49q39 0 62.5 -20.5t23.5 -54.5q0 -37 -29 -70v-1067q18 -23 19 -53q0 -82 -135 -82q-59 0 -82 12t-23 59q0 35 29 68v961z" />
<glyph unicode="2" d="M1171 115q0 -63 -16 -89t-61 -26h-744q-35 -27 -102 -27q-41 0 -64.5 17.5t-23.5 36.5q0 115 112 290q43 68 92.5 123.5t106.5 99.5t93 68.5t98 60.5l75 44q190 113 191 293q0 82 -54.5 125t-146.5 43q-125 0 -199.5 -41t-124.5 -127q-4 -6 -4 -50q0 -23 -34.5 -48 t-81.5 -25q-53 0 -85 30.5t-32 73.5q0 27 18.5 52.5t40.5 25.5q82 145 208 208.5t315 63.5q174 0 278 -90t104 -233q0 -170 -80.5 -269.5t-213.5 -169.5q-154 -84 -260.5 -178t-165.5 -233h571q0 68 19.5 93.5t84.5 25.5q43 0 64.5 -37t21.5 -131z" />
<glyph unicode="3" d="M836 1163h-480v-67q14 -16 15 -56q0 -27 -34 -52t-75 -25q-49 0 -75.5 20.5t-26.5 46.5q0 61 24 72v141q0 37 22.5 60.5t65.5 23.5h742q90 0 90 -67q0 -55 -53 -113l-269 -273q51 14 133 15q123 0 214.5 -91t91.5 -247q0 -291 -212 -436.5t-542 -145.5q-143 0 -244.5 83 t-101.5 233q0 53 36 91t87 38q53 0 77.5 -26t24.5 -60q0 -25 -6 -37t-17.5 -18.5t-13.5 -8.5q33 -129 203 -129q223 0 365.5 103.5t142.5 287.5q0 80 -46 142.5t-130 62.5q-102 0 -183 -27.5t-130.5 -54t-77.5 -26.5q-39 0 -62.5 30.5t-23.5 73.5q0 41 25.5 57.5t76.5 35 t86 52.5z" />
<glyph unicode="4" d="M774 399l-559 -82q-37 -25 -86 -24q-96 0 -96 108q0 23 19.5 47.5t41.5 38.5l656 762q2 31 35.5 54.5t82.5 23.5q51 0 84 -27.5t33 -66.5q0 -49 -16 -72v-563l182 29q25 25 57 24q88 0 88 -98q0 -55 -23.5 -87t-58.5 -32q-33 0 -57 21l-188 -25v-287q29 -25 28 -57 q0 -98 -149 -98q-92 0 -92 84q0 39 18 53v274zM774 567v473l-463 -540z" />
<glyph unicode="5" d="M1030 1151q-29 0 -55 18l-590 -41q0 -35 -10 -164.5t-21 -185.5q94 68 186.5 102.5t142.5 41t118 6.5q78 0 149.5 -18.5t136 -57.5t102.5 -113.5t38 -175.5q0 -147 -66.5 -267t-171 -187.5t-215 -103.5t-215.5 -36q-256 0 -379 137q-66 16 -65 84q0 125 112 125 q88 0 88 -94q0 -14 23.5 -33.5t77 -37t123.5 -17.5q207 0 347 118t140 284q0 106 -65.5 167.5t-188.5 61.5q-106 0 -198.5 -34t-142.5 -75t-101 -75.5t-86 -34.5q-41 0 -69 21.5t-28 56.5q0 18 15.5 76.5t19.5 97.5q20 197 21 428q0 57 82 61l657 45q51 29 86 29 q49 0 74.5 -30t25.5 -77q0 -102 -98 -102z" />
<glyph unicode="6" d="M606 -33q-121 0 -212 44t-187 145q-41 -4 -71 42t-9 99q-51 109 -51 231q0 145 56 295t151.5 268.5t233.5 194.5t290 76q156 0 261.5 -62.5t105.5 -156.5q0 -43 -32 -68.5t-79 -25.5q-59 0 -82 32.5t-10 63.5q-31 53 -180 53q-143 0 -266.5 -103.5t-189 -248 t-65.5 -281.5q0 -53 15 -100q115 168 276.5 283.5t327.5 115.5q193 0 286 -94t93 -217q0 -139 -63.5 -255t-164 -185.5t-213 -107.5t-221.5 -38zM598 131q66 0 142.5 24.5t150.5 71.5t122 130t48 188q0 57 -46 106t-136 49q-135 0 -276.5 -114.5t-254.5 -280.5 q31 -74 101.5 -124t148.5 -50z" />
<glyph unicode="7" d="M350 1122v-75q16 -20 17 -43q0 -31 -38 -56.5t-85 -23.5q-39 2 -64.5 26.5t-25.5 48.5q0 27 20 52v149q0 41 20.5 61.5t79.5 22.5l736 35q53 4 71.5 34.5t75.5 30.5q45 0 76 -22.5t31 -52.5q0 -72 -45 -105q-86 -150 -301 -577q-229 -446 -261 -527q2 -70 -26.5 -102.5 t-98.5 -32.5q-45 0 -68.5 30t-23.5 77q0 29 60 151l483 942q-29 -8 -102 -12z" />
<glyph unicode="8" d="M424 -23q-125 0 -248 84t-123 228q0 137 95.5 265t201.5 185v4q-119 59 -119 211q0 193 142.5 300.5t349.5 107.5q156 0 245 -65.5t89 -163.5q0 -68 -30 -138.5t-75 -109.5l2 -4q68 -2 136.5 -27t127 -92.5t58.5 -161.5q0 -160 -141.5 -307.5t-338 -231.5t-372.5 -84z M858 1075q0 129 -172 129q-115 0 -188.5 -64.5t-73.5 -172.5q0 -59 28.5 -96t67.5 -42q92 37 238 56q41 35 70.5 89t29.5 101zM821 719q-207 0 -388 -130t-181 -294q0 -59 65.5 -105.5t118.5 -46.5q133 0 281.5 64.5t251 169t102.5 207.5q0 57 -66.5 96t-183.5 39z" />
<glyph unicode="9" d="M768 1348q227 0 383 -207q35 -12 54.5 -52t19.5 -79q0 -25 -8 -39q33 -131 32 -219q0 -340 -211 -564.5t-493 -224.5q-272 0 -400 225q-20 4 -35.5 26t-15.5 48q0 59 38 88t81 29q66 0 94.5 -38t11.5 -77q27 -57 87.5 -97t128.5 -40q147 0 269 87t185.5 212t63.5 250 q0 49 -6 88h-5q-57 -90 -200.5 -158.5t-290.5 -68.5q-164 0 -282.5 106.5t-118.5 200.5q0 242 169.5 373t448.5 131zM748 1184q-172 0 -284 -83t-112 -239q0 -51 79 -106.5t142 -55.5q158 0 296.5 94.5t138.5 200.5q0 68 -74.5 128.5t-185.5 60.5z" />
<glyph unicode=":" horiz-adv-x="448" d="M231 836q45 0 69 -41t24 -88q0 -57 -34 -98.5t-87 -41.5q-51 0 -78 41t-27 80q0 57 33.5 102.5t99.5 45.5zM197 -16q-96 0 -97 106q0 72 41 115t99 43q29 0 57.5 -23.5t28.5 -74.5q0 -68 -40 -117t-89 -49z" />
<glyph unicode=";" horiz-adv-x="444" d="M199 567q-37 0 -67 33t-30 90q0 49 35 93t90 44q100 0 101 -122q0 -57 -33 -97.5t-96 -40.5zM104 -227q-33 0 -44 12t-11 39q0 49 68 55q55 2 82.5 36t29.5 87q-23 -20 -55 -20q-37 0 -57.5 32.5t-20.5 75.5q0 66 30 106t85 40q117 0 117 -185q0 -135 -72 -206.5 t-152 -71.5z" />
<glyph unicode="&#x3c;" horiz-adv-x="1134" d="M373 457l450 -273q51 -4 73 -15t22 -44q0 -41 -41 -93t-84 -52q-59 0 -72 55l-477 311q-63 41 -84 70.5t-21 72.5q0 41 64 74l514 268q-2 29 25.5 54.5t60.5 25.5q51 0 91 -42t40 -66q0 -49 -20.5 -72.5t-73.5 -28.5z" />
<glyph unicode="=" horiz-adv-x="1134" d="M244 762h622q6 2 19.5 7t24 8t18.5 3q82 0 82 -106q0 -104 -82 -105q-39 0 -60 13h-624q-47 -14 -66 -15q-78 0 -78 88q0 117 86 117q31 0 58 -10zM244 379h622q6 2 19.5 7t24 8t18.5 3q82 0 82 -106q0 -104 -82 -105q-39 0 -60 13h-624q-47 -14 -66 -15q-78 0 -78 88 q0 117 86 117q31 0 58 -10z" />
<glyph unicode="&#x3e;" horiz-adv-x="1134" d="M289 184l450 273l-467 245q-53 4 -73.5 28t-20.5 73q0 25 40 66.5t91 41.5q33 0 60.5 -25.5t25.5 -54.5l514 -268q63 -33 64 -74q0 -43 -20.5 -72.5t-84.5 -70.5l-477 -311q-12 -55 -72 -55q-43 0 -83.5 52t-40.5 93q0 33 21.5 44t72.5 15z" />
<glyph unicode="?" horiz-adv-x="950" d="M426 295q-117 0 -169 40t-52 138q0 90 62.5 168t217.5 199q137 109 185.5 168t48.5 114q0 39 -42 69t-116 30q-172 0 -280 -160q4 -43 -23 -75t-57 -32q-49 0 -83 29t-34 76q0 29 12.5 54.5t28.5 27.5q33 41 59.5 68.5t87 74.5t143.5 72.5t183 25.5q137 0 230.5 -72.5 t93.5 -168.5q0 -90 -57.5 -169t-248.5 -239q-154 -127 -195.5 -170t-41.5 -78q0 -41 57 -41q47 0 69.5 19.5t22.5 44.5q0 20 21.5 36.5t52.5 16.5q104 0 105 -80q0 -72 -72 -129t-209 -57zM397 -39q-35 0 -64.5 29.5t-29.5 75.5q0 154 127 153q90 0 90 -123q0 -53 -31 -94 t-92 -41z" />
<glyph unicode="@" horiz-adv-x="1646" d="M532 -131q170 0 289 70q10 49 64 49q37 0 70.5 -27t33.5 -59q0 -37 -32.5 -62.5t-79.5 -21.5q-164 -80 -353 -80q-213 0 -341 115.5t-128 365.5q0 152 78 314.5t208 296t317.5 219.5t385.5 86q524 0 525 -553q0 -301 -123 -453t-283 -152q-92 0 -137 47.5t-45 116.5 q0 16 2 41t6 55l6 44h-4q-70 -100 -192.5 -186.5t-243.5 -86.5q-80 0 -129 51.5t-49 145.5q0 227 204.5 440t413.5 213q35 0 70 -10q6 41 63 41q41 0 65 -17.5t24 -44.5q0 -12 -11 -47l-65 -587q-8 -90 53 -91q74 0 147.5 118t73.5 337q0 217 -79 333t-292 116 q-172 0 -331.5 -77t-267 -194t-172 -253t-64.5 -259q-1 -354 323 -354zM618 168q98 0 257 163t159 294v28q0 59 -57 60q-129 0 -271.5 -157t-142.5 -300q0 -88 55 -88z" />
<glyph unicode="A" horiz-adv-x="1280" d="M885 494l-506 -33q-133 -264 -139 -295q-2 -14 -2 -90q0 -86 -121 -86q-53 0 -80 26.5t-27 67.5q0 39 88 221l25 49l356 701q59 111 72 170q-2 55 30.5 96t88.5 41q49 0 77.5 -24.5t28.5 -53.5q0 -18 -7 -39.5t-7 -36.5q0 -29 45 -127l106.5 -221t77.5 -160 q246 -502 246 -589q0 -57 -33 -89t-88 -32q-47 0 -77.5 21.5t-30.5 56.5q0 18 6 41.5t6 31.5q0 54 -135 353zM459 623l358 24l-166 377z" />
<glyph unicode="B" horiz-adv-x="1282" d="M141 147v994q-18 31 -18 63q0 49 40 75t93 26q35 0 58.5 -18.5t21.5 -45.5q88 37 221 64.5t231 27.5q117 0 194 -49t77 -125q0 -188 -228 -291v-4q37 6 68 6q139 0 230.5 -77.5t91.5 -182.5q0 -125 -78 -233.5t-196 -179t-258 -121.5t-260 -73.5t-206 -22.5 q-121 0 -121 92q0 61 39 75zM338 1073v-242q178 10 350 94.5t172 172.5q0 74 -147 73q-78 0 -195 -30.5t-180 -67.5zM338 614v-448q143 12 293.5 63.5t267.5 147.5t117 209q0 55 -62.5 102t-183.5 47q-186 0 -358 -57q-74 -27 -74 -64z" />
<glyph unicode="C" horiz-adv-x="1146" d="M696 1343q164 0 274.5 -65.5t110.5 -142.5q0 -51 -29.5 -80t-78.5 -29q-78 0 -96 82q-4 29 -52.5 48.5t-117.5 19.5q-119 0 -223.5 -113t-160 -263.5t-55.5 -283.5q0 -184 78 -282.5t182 -98.5q90 0 182.5 49t139.5 113q8 117 108 117q49 0 78 -29t29 -57q0 -59 -57 -127 q-84 -90 -223 -165q-135 -73 -275 -73h-8q-197 0 -314.5 143.5t-117.5 421.5q0 119 45 258.5t122.5 264.5t199.5 208.5t259 83.5z" />
<glyph unicode="D" horiz-adv-x="1259" d="M106 61q0 53 25 82v1035q-14 33 -14 67q0 33 31.5 60.5t91.5 27.5q51 0 72 -28q16 -21 16 -46q0 -10 -2 -20q199 96 419 96q184 0 316.5 -142t132.5 -321q0 -362 -248 -604q-145 -139 -352 -218t-365 -79q-123 0 -123 90zM326 1063v-903q301 27 485 225q178 211 178 469 q0 119 -83 217t-206 98q-186 0 -374 -106z" />
<glyph unicode="E" horiz-adv-x="1136" d="M340 567v-397l565 39q27 31 66 31q49 0 81.5 -31t32.5 -66q0 -61 -38.5 -82.5t-126.5 -21.5l-578 -41q-31 -35 -117 -35q-45 0 -76.5 27.5t-31.5 77t26 90.5v385q-37 35 -37 94q0 57 37 94v328q-43 23 -43 80q0 55 31 80q-10 10 -10 32q0 33 32.5 53.5t82 20.5t77 -21.5 t27.5 -54.5l487 43q43 31 76 31q55 0 86 -27.5t31 -66.5q0 -53 -33 -87t-86 -34q-33 0 -70 16l-491 -45v-342l391 49q41 29 74 29q49 0 81 -32.5t32 -73.5q0 -104 -121 -105q-23 0 -47 14z" />
<glyph unicode="F" horiz-adv-x="1040" d="M338 573v-415q27 -31 27 -78q0 -45 -40 -69.5t-100 -24.5q-119 2 -119 90q0 61 35 100v371q-35 35 -35 94q0 61 35 100v306q-12 4 -26.5 33.5t-14.5 56.5q0 72 41 77q-2 47 38 74t91 27q39 0 60.5 -19.5t9.5 -50.5l469 68q14 2 37.5 12t38.5 10q49 0 81.5 -23.5 t30.5 -64.5q0 -70 -24.5 -97.5t-85.5 -27.5q-39 0 -76 19l-473 -70v-323l438 63q31 27 88 27q29 0 52.5 -34t23.5 -67q0 -63 -22.5 -88.5t-75.5 -25.5q-43 0 -72 12z" />
<glyph unicode="G" horiz-adv-x="1390" d="M889 1362q156 0 254 -76q41 -31 72.5 -76t31.5 -71q0 -41 -26.5 -66.5t-73.5 -25.5q-74 0 -98 86q-10 27 -56.5 46t-118.5 19q-135 0 -305 -125q-301 -223 -301 -569q0 -182 79 -279.5t200 -97.5q90 0 195.5 39t170.5 104q96 88 149.5 181.5t53.5 156.5 q-49 -14 -171 -38.5t-167 -24.5q-31 0 -53.5 21.5t-22.5 60.5t25 65.5t68 26.5q96 0 262 36t180 36q88 0 88 -95q0 -61 -24.5 -146t-85 -188.5t-147.5 -191.5t-229.5 -147.5t-312.5 -59.5h-6q-215 0 -333 146q-120 147 -119 395q0 219 110.5 397t282.5 299q233 162 428 162z " />
<glyph unicode="H" horiz-adv-x="1282" d="M340 600v-453q14 -39 14 -69q0 -37 -29.5 -62.5t-70.5 -25.5q-133 0 -133 84q0 53 22 67v447q-35 23 -34 65q0 90 34 103v415q-16 41 -16 60q0 39 40 64.5t97 25.5q29 0 60.5 -25.5t31.5 -60.5q0 -49 -16 -68v-389l606 39v342q-16 27 -16 76q0 37 34.5 61.5t77.5 24.5 q37 0 77 -26.5t40 -53.5q0 -39 -16 -65v-1037q16 -29 16 -69q0 -33 -38 -56.5t-81 -23.5q-45 0 -80.5 27.5t-35.5 68.5q0 35 22 72v481z" />
<glyph unicode="I" horiz-adv-x="477" d="M338 1128v-966q29 -41 29 -72q0 -39 -37 -69.5t-92 -30.5q-57 0 -91 28.5t-34 77.5q0 39 28 74v971q-25 16 -24 59q0 53 42 87t101 34q55 0 83 -33t28 -78t-33 -82z" />
<glyph unicode="J" horiz-adv-x="1081" d="M936 1120v-809q0 -84 -46 -167t-128 -144q-143 -113 -348 -113q-184 0 -284.5 96.5t-100.5 249.5q0 59 28.5 105.5t75.5 46.5q55 0 91 -33t36 -73q0 -49 -35 -80q-2 -66 45 -102t136 -36q51 0 117.5 24t103.5 54q51 43 81.5 100.5t30.5 106.5v764q-33 27 -32 80 q0 121 131 121q47 0 81.5 -34t34.5 -87q0 -52 -18 -70z" />
<glyph unicode="K" horiz-adv-x="1159" d="M338 694v-544q23 -19 23 -62q0 -51 -33 -74q-35 -25 -88 -24q-51 0 -88 27q-35 26 -35 72t24 67v1009q-16 14 -16 52q0 51 32.5 77.5t75.5 26.5q45 0 83 -22.5t38 -69.5q0 -33 -16 -55v-295h4q35 47 109 104l340 258q37 76 100 76q31 0 68.5 -23.5t37.5 -68.5 q0 -33 -27.5 -68t-64.5 -37l-426 -323l588 -635q31 0 54.5 -22.5t23.5 -47.5q0 -37 -40 -73.5t-95 -36.5q-45 0 -68.5 18t-23.5 47l-474 506q-76 84 -102 141h-4z" />
<glyph unicode="L" horiz-adv-x="927" d="M338 1153v-997l389 49q39 29 71.5 28.5t62.5 -24t30 -68.5q0 -55 -25.5 -84.5t-58.5 -29.5q-29 0 -59 10l-431 -55q-61 -12 -88 -13q-117 0 -116 94q0 51 28 72v1018q-16 33 -16 55q0 57 36 85t87 28q111 0 110 -109q0 -18 -20 -59z" />
<glyph unicode="M" horiz-adv-x="1605" d="M121 86q0 47 16 64v1064q-2 53 27 77t84 26q96 -4 96 -80q4 -76 94 -238l197 -353q106 -191 137 -318h6q35 125 148 297l207 317q94 145 102 227q0 12 -3 44t-3 44q0 31 27.5 49.5t74.5 18.5q137 0 137 -100q0 -29 -14 -62v-1020q18 -18 19 -57q0 -45 -36 -70.5 t-85 -25.5q-109 0 -109 82q0 41 23 63q0 471 6 709h-4l-86 -144l-108 -180l-95 -170q-51 -94 -79 -165.5t-30 -112.5q-2 -72 -102 -72q-117 0 -117 111q0 31 -10 72.5t-34 99.5l-43 101q-19 44 -59 121l-60 113l-67 123q-48 86 -61 111h-6q6 -227 6 -696q25 -25 25 -72 q0 -41 -28.5 -67.5t-84.5 -26.5q-53 0 -80.5 26.5t-27.5 69.5z" />
<glyph unicode="N" horiz-adv-x="1253" d="M143 143v1014q-16 27 -16 62q0 43 28.5 72.5t84.5 29.5q61 0 85.5 -18.5t24.5 -59.5q0 -61 76 -201q96 -172 283 -368q174 -184 221 -283h4q-6 264 -6 805l-7 14q-5 10 -9.5 20.5t-4.5 20.5q0 47 29 69.5t70 22.5q47 0 83.5 -20t36.5 -57q0 -27 -16 -66v-1085 q25 -29 25 -56q0 -39 -25 -54t-88 -15q-43 0 -67.5 27.5t-47.5 82.5q-35 76 -127 202t-170 208q-217 231 -286 387h-5q6 -369 7 -754q20 -31 20 -61q0 -92 -100 -92q-127 0 -127 98q-1 30 24 55z" />
<glyph unicode="O" horiz-adv-x="1267" d="M737 1380q197 0 327 -155.5t130 -479.5q0 -334 -203 -558t-493 -224q-119 0 -208 51.5t-137.5 133t-71 171t-22.5 181.5q0 203 93.5 407.5t252 338.5t332.5 134zM715 1217q-104 0 -210 -105.5t-173.5 -268.5t-67.5 -319q0 -102 25.5 -188t89 -147.5t156.5 -61.5 q174 0 314 178t140 434q0 236 -71.5 357t-202.5 121z" />
<glyph unicode="P" horiz-adv-x="1144" d="M125 78q0 35 25 65v754q-59 8 -60 88q0 72 60 109v73q-12 18 -13 56q0 35 36 61.5t71 26.5q57 0 84 -29q19 -21 19 -51q0 -12 -3 -25v-22q92 47 132 64.5t142.5 44t208.5 26.5q139 0 213 -57.5t74 -159.5q0 -174 -217 -336t-551 -215v-418q23 -35 23 -53q0 -55 -27 -72.5 t-113 -17.5q-49 0 -76.5 25.5t-27.5 62.5zM346 1004v-283q254 37 410 138q154 100 153 195q0 39 -37.5 64t-107.5 25q-191 0 -418 -139z" />
<glyph unicode="Q" horiz-adv-x="1347" d="M831 1370q199 0 306.5 -147.5t107.5 -397.5q0 -350 -164 -575q98 -104 181 -158q82 -8 81 -74q0 -49 -36.5 -80.5t-79.5 -31.5q-59 0 -84 47q-74 43 -197 166q-186 -150 -465 -150q-74 0 -141.5 23.5t-132 76t-102 156t-37.5 246.5q0 193 71.5 366t183 286.5t245.5 180 t263 66.5zM811 1210q-84 0 -176 -51t-174 -141t-135.5 -233.5t-53.5 -309.5q0 -160 63.5 -252t174.5 -92q182 0 311 109q-117 115 -211 170q-21 16 -20 43q0 21 12 49q29 63 92 63q39 0 82 -33q55 -45 162 -153q104 186 104 455q0 154 -64.5 265t-166.5 111z" />
<glyph unicode="R" horiz-adv-x="1247" d="M121 98q0 23 26 66v790q-6 -4 -18 -4q-16 0 -30.5 20.5t-14.5 57.5q0 92 63 115v43q-14 33 -14 59q0 43 35 69.5t82 26.5q49 0 78 -33q18 -22 18 -50q0 -16 -6 -35v-21q256 115 502 115q127 0 205.5 -56.5t78.5 -156.5q0 -158 -167.5 -275.5t-477.5 -171.5l664 -479 q18 7 35 7q28 0 55 -18q43 -30 43 -71q0 -57 -37 -89t-86 -32q-70 0 -96 56l-719 524v-399q18 -37 18 -64q0 -102 -141 -102q-47 0 -71.5 31.5t-24.5 76.5zM340 1044v-286q582 123 582 317q0 37 -36 58.5t-98 21.5q-212 0 -448 -111z" />
<glyph unicode="S" horiz-adv-x="1296" d="M729 1329q133 0 241.5 -68.5t108.5 -138.5q0 -86 -92 -86q-117 0 -117 72q-39 57 -170 57q-160 0 -287.5 -102t-127.5 -215q0 -100 90 -100q78 0 243 47q178 49 300 49q135 0 221 -69.5t86 -203.5q0 -178 -115 -311q-111 -135 -297 -213t-371 -78q-92 0 -165.5 30 t-113.5 74t-59.5 85t-19.5 69q0 51 30.5 86t82.5 35q31 0 49 -17.5t37.5 -64.5t19.5 -49q43 -84 154 -84q123 0 260 59.5t219 149.5q84 78 84 217q0 63 -32 90t-97 27q-100 0 -275 -47q-160 -49 -284 -49q-252 0 -252 247q0 178 195.5 340t453.5 162z" />
<glyph unicode="T" horiz-adv-x="1011" d="M602 1124v-985q18 -31 19 -51q0 -98 -136 -98q-92 0 -92 86q0 47 13 71v947l-240 -47q-33 -20 -64 -21q-43 0 -68.5 24.5t-25.5 65.5q0 43 24.5 74t59.5 31t60 -15l272 54q20 25 71 33q18 3 33 4q27 0 43 -11l310 55q31 14 63 15q41 0 65.5 -25.5t24.5 -70.5 q0 -41 -24.5 -70t-63.5 -29q-31 0 -63 17z" />
<glyph unicode="U" horiz-adv-x="1236" d="M481 -35q-178 0 -261 92.5t-85 204.5v916q-13 24 -12 46q0 24 15 46q30 41 91 41q96 0 97 -119v-946q14 -43 58 -74t105 -31q123 0 221.5 48.5t140.5 99.5t42 84v813q-18 14 -19 47q0 43 35 69.5t90 26.5q37 0 65 -22.5t28 -61.5q0 -29 -9 -41v-862q0 -35 -41 -104.5 t-100 -112.5q-195 -160 -461 -160z" />
<glyph unicode="V" horiz-adv-x="1118" d="M471 365h4q129 354 426 813q39 117 123 116q43 0 69.5 -25.5t26.5 -78.5q0 -49 -41 -105q-205 -258 -313 -460q-90 -166 -142.5 -310.5t-52.5 -195.5q0 -133 -129 -134q-6 0 -12 1h-6q-38 0 -72 24q-37 27 -33 56q0 23 5.5 54.5t5.5 49.5q0 133 -148 549 q-123 342 -123 495q0 96 113 97q90 0 90 -142q0 -76 107 -428q84 -263 102 -376z" />
<glyph unicode="W" horiz-adv-x="1632" d="M389 -16q-94 0 -94 163q0 147 -113 531l-20 74q-16 59 -22.5 79.5t-20 71.5t-18.5 80l-12 72q-7 43 -10 77.5t-3 69.5q0 59 31.5 89t78.5 30q43 0 71 -26.5t28 -69.5q0 -10 -6.5 -40t-4.5 -46q2 -125 70 -391q74 -276 88 -414q27 117 146 418q98 264 98 419v13 q0 115 98 114q4 0 8 1q55 0 75 -29q22 -31 22 -109q0 -141 143 -469q102 -262 123 -356q31 160 139 461q84 215 98 397q-18 23 -18 55q0 39 26.5 69t86.5 30q49 0 79.5 -26t30.5 -60q0 -41 -6 -78q-25 -143 -129 -434l-50 -139.5t-58.5 -170t-43 -148.5t-34.5 -163 q-14 -92 -38 -127t-77 -35q-66 0 -86.5 32t-28.5 116q-4 66 -131 413q-88 188 -129 340q-27 -98 -121 -342q-133 -334 -133 -452q0 -41 -36 -65.5t-97 -24.5z" />
<glyph unicode="X" horiz-adv-x="1044" d="M133 -10q-33 0 -62.5 24.5t-29.5 57.5q0 74 57 94q131 244 330 532q-158 266 -293 437q-53 59 -53 94q0 41 23.5 67.5t52.5 26.5q63 0 100 -31q14 -12 28.5 -26.5t30.5 -36.5l29 -39q12 -16 30.5 -49t30 -49.5t32.5 -56.5l30 -55l34 -62q26 -47 32 -60q135 199 243 381 q16 76 113 76q45 0 72.5 -27.5t27.5 -68.5q0 -63 -61 -107q-27 -43 -136.5 -187.5t-166.5 -230.5q33 -53 145.5 -250.5t163.5 -275.5q33 -20 33 -74q0 -47 -33 -75.5t-82 -28.5q-51 0 -74 30q-19 26 -19 61q0 6 1 13q-29 49 -113 208t-127 230q-68 -106 -260 -462 q-43 -80 -129 -80z" />
<glyph unicode="Y" horiz-adv-x="1214" d="M510 170v471q-57 104 -221 260t-226 244q-61 25 -61 94q0 43 40 72.5t85 31.5q41 0 68.5 -26.5t25.5 -63.5q41 -72 192.5 -223t196.5 -223h4q49 68 177.5 190.5t183.5 192.5q35 45 47 67q31 86 108 86q43 0 71 -25.5t28 -64.5q0 -37 -58 -110q-16 -23 -51 -61t-37 -40 q-25 -29 -175 -171t-201 -232v-492q23 -29 22 -55q0 -45 -33.5 -73.5t-101.5 -28.5q-57 0 -82 20.5t-25 80t23 79.5z" />
<glyph unicode="Z" horiz-adv-x="1183" d="M897 1174l-569 -31q-31 -100 -115 -101q-43 0 -63.5 26t-20.5 62q0 86 38 146.5t97 60.5q51 0 64 -26l567 24q33 0 83 5.5t73 5.5q43 0 71.5 -19.5t28.5 -50.5q0 -80 -86 -166l-803 -960l656 18q0 51 31.5 83t72.5 32q37 0 68.5 -31t31.5 -98q0 -78 -31.5 -117t-80.5 -39 q-12 0 -124 1t-212 1q-61 0 -279 -8q-184 -10 -221 -10q-143 0 -143 106q0 57 63 119z" />
<glyph unicode="[" horiz-adv-x="686" d="M350 -281l211 25q35 25 51 25q33 0 53.5 -30t20.5 -71q0 -80 -102 -86l-230 -24q-51 -20 -96 -21q-104 0 -104 117v1583q0 59 31.5 88t72.5 29q47 0 88 -23l156 29q39 27 73 26q47 0 68 -27.5t21 -64.5q0 -51 -24 -78.5t-54 -27.5q-35 0 -49 16l-193 -37v-1443z" />
<glyph unicode="\" horiz-adv-x="692" d="M444 102l-368 1086q-20 4 -33.5 26.5t-13.5 49.5q0 72 98 71q68 0 90.5 -25.5t18.5 -76.5l368 -1088q68 -20 68 -71q0 -53 -37 -81t-90 -28q-47 0 -81 21.5t-34 52.5q0 38 14 63z" />
<glyph unicode="]" horiz-adv-x="686" d="M342 1194l-211 -25q-37 -27 -51 -26q-33 0 -53.5 29.5t-20.5 72.5q0 76 103 86l229 25q51 20 96 20q104 0 105 -116v-1582q0 -59 -32 -87.5t-73 -28.5q-47 0 -88 22l-156 -28q-35 -25 -73 -29q-47 0 -67.5 26.5t-20.5 63.5q0 53 23.5 81t53.5 28q35 0 50 -17l192 37v1442 z" />
<glyph unicode="^" horiz-adv-x="1134" d="M778 854l-190 240l-230 -248q-2 -41 -23.5 -76t-62.5 -35q-53 0 -96 31t-43 70q0 20 10.5 36.5t33 39t32.5 34.5l295 332q29 59 86 59q47 0 79.5 -32.5t45.5 -67.5l225 -297q51 -59 51 -104q0 -39 -28.5 -70t-94.5 -31q-39 0 -65.5 31t-24.5 88z" />
<glyph unicode="_" horiz-adv-x="1024" d="M1024 -307h-1024v153h1024v-153z" />
<glyph unicode="`" horiz-adv-x="708" d="M297 1300l129 -149q20 -4 36.5 -22.5t16.5 -43.5q0 -37 -25.5 -57t-64.5 -20q-31 0 -49 21.5t-18 45.5l-134 152q-47 20 -47 69q0 80 88 80q31 0 48.5 -22.5t19.5 -53.5z" />
<glyph unicode="a" horiz-adv-x="999" d="M682 590v104q0 80 -74 80q-147 0 -282 -88q4 -16 -20.5 -36.5t-65.5 -20.5q-35 0 -60.5 31.5t-25.5 64.5q0 31 30 60q25 25 51 25l11 -1q178 113 434 113q80 0 133 -49.5t53 -135.5v-626q16 -12 17 -50q0 -74 -135 -73q-86 0 -86 65q0 16 16 49v93h-4 q-211 -231 -457 -232q-82 0 -135 44t-53 120q0 150 176 289t477 174zM678 399v64q-190 -23 -325.5 -117t-135.5 -172q0 -47 68 -47q111 0 252 100t141 172z" />
<glyph unicode="b" horiz-adv-x="987" d="M317 1214v-485l5 -4q195 168 421 168q199 0 199 -209q0 -141 -106.5 -308t-281.5 -286t-345 -119q-115 0 -115 84q0 49 33 70v1071q-27 35 -27 74q0 37 46.5 56.5t93.5 19.5q94 0 94 -76q-1 -29 -17 -56zM317 555v-397q166 57 298.5 203.5t132.5 312.5q0 57 -91 57 q-66 0 -162 -46t-178 -130z" />
<glyph unicode="c" horiz-adv-x="950" d="M586 909q119 0 201.5 -47t82.5 -112q0 -45 -29.5 -73t-88.5 -28q-45 0 -66 51q-8 16 -15 25.5t-27.5 18t-53.5 8.5q-100 0 -193 -103q-143 -143 -143 -325q0 -94 48 -146.5t138 -52.5q59 0 131 43q82 49 121 123q10 51 27.5 73.5t62.5 22.5q51 0 76 -27.5t25 -58.5 q0 -27 -51.5 -103.5t-126.5 -131.5q-131 -104 -310 -105q-150 0 -239.5 92t-89.5 240q0 160 51 259t159 212q47 53 139.5 99t170.5 46z" />
<glyph unicode="d" horiz-adv-x="1069" d="M752 813v373q-29 14 -29 69q0 39 35 63.5t88 24.5q49 0 75.5 -27.5t26.5 -66.5l-6 -69v-1055q27 -16 27 -51q0 -47 -30 -66.5t-95 -19.5q-102 0 -103 82q0 39 11 47v141q-78 -119 -223.5 -207t-276.5 -88q-96 0 -160.5 63.5t-64.5 178.5q0 236 193.5 439.5t393.5 203.5 q87 0 138 -35zM616 692q-121 0 -258 -158.5t-137 -287.5q0 -109 96 -109q133 0 289 164q53 53 76 79t44.5 74t21.5 103q0 61 -34.5 98t-97.5 37z" />
<glyph unicode="e" horiz-adv-x="958" d="M598 909q82 0 143.5 -27.5t93 -69.5t47 -81t15.5 -74q0 -53 -33 -91t-156.5 -84t-349.5 -85l-94 -16q-14 -45 -14 -111q0 -143 141 -143q96 0 180 44t117 93q-4 37 24.5 63.5t78.5 26.5q92 0 92 -90q0 -25 -35 -71t-95.5 -98t-164 -90t-219.5 -38q-141 0 -224.5 68.5 t-83.5 218.5q0 276 164 465.5t373 189.5zM590 754q-86 0 -164 -63.5t-125 -164.5q172 31 267.5 54.5t121 38t25.5 30.5q0 43 -32 74t-93 31z" />
<glyph unicode="f" horiz-adv-x="706" d="M213 113v546l-104 -16q-18 -14 -37 -14q-70 0 -70 98q0 31 17.5 58.5t41.5 27.5q16 0 43 -10l109 18q0 289 61.5 418t229.5 129q84 0 171 -59.5t87 -112.5q0 -35 -23.5 -66.5t-62.5 -31.5q-35 0 -57.5 20.5t-20.5 44.5q-27 45 -102 45q-49 0 -71 -77.5t-22 -278.5l228 37 q2 0 18.5 11t28.5 11q37 0 59.5 -24.5t22.5 -59.5q0 -104 -66 -104q-23 0 -43 10l-248 -41v-567q18 -33 19 -57q0 -78 -109 -78q-113 0 -112 84q0 14 12 39z" />
<glyph unicode="g" horiz-adv-x="991" d="M868 788v-823q0 -190 -130 -296.5t-292 -106.5q-127 0 -216 44t-89 103q0 47 26 77t64 30q63 0 76 -60q53 -41 150 -41q88 0 155.5 64.5t67.5 204.5q0 51 1 154.5t1 154.5q-59 -147 -176 -238.5t-236 -91.5q-113 0 -169 63.5t-56 166.5q0 168 82 326.5t246 266t370 107.5 q125 -1 125 -105zM295 129q72 0 172 97.5t158 258.5q47 121 55 252v2q-178 0 -312.5 -162.5t-134.5 -353.5q1 -94 62 -94z" />
<glyph unicode="h" horiz-adv-x="974" d="M659 127v475q0 53 -9 71.5t-36 18.5q-55 0 -137 -43t-158 -141v-377q16 -23 17 -57q0 -37 -42 -60.5t-95 -23.5q-84 0 -84 65q0 51 14 68v1061q0 8 -9 28.5t-9 30.5q0 49 35.5 77t93.5 28q29 0 63.5 -29t34.5 -64q0 -20 -19 -61v-483h5q201 182 383 182q80 0 111.5 -48 t31.5 -155v-565q0 -4 8 -19.5t8 -25.5q0 -35 -39 -62.5t-82 -27.5q-47 0 -76.5 18.5t-29.5 50.5q0 48 20 68z" />
<glyph unicode="i" horiz-adv-x="440" d="M248 1288q92 0 92 -94q0 -86 -36 -138t-87 -52q-92 0 -92 98q0 80 33 133t90 53zM332 771.5q-4 -13.5 -10.5 -25t-6.5 -13.5v-586q27 -20 27 -57q0 -47 -47 -73.5t-102 -26.5q-41 0 -67 26.5t-26 69.5q0 39 25 70v569q-18 18 -19 53q0 27 3.5 43.5t14.5 37t38.5 29.5 t73.5 9q35 0 68 -32q32 -30 32 -60q0 -20 -4 -33.5z" />
<glyph unicode="j" horiz-adv-x="475" d="M295 1300q35 0 52.5 -21.5t19.5 -44t2 -65.5q0 -170 -127 -170q-41 0 -65.5 45.5t-24.5 110.5q0 57 42 101t101 44zM348 696v-889q0 -158 -89 -241.5t-226 -83.5q-123 0 -200 73.5t-77 129.5q0 49 27 84.5t76 35.5q37 0 64 -24q20 -18 20 -51q0 -12 -2 -27q31 -57 94 -57 q123 0 123 207v843q-29 33 -29 78q0 123 150 123q45 0 72.5 -31.5t27.5 -87.5q0 -37 -31 -82z" />
<glyph unicode="k" horiz-adv-x="901" d="M313 1200v-631l4 -2q72 88 136 154l186 180q2 27 24.5 46.5t53.5 19.5q51 0 78.5 -30t27.5 -71q0 -33 -22.5 -54t-46.5 -21l-291 -299l315 -338q31 4 53.5 -16.5t22.5 -51.5q0 -45 -35 -74.5t-94 -29.5q-51 0 -72 59l-211 227q-88 100 -125 148l-4 -2v-254q0 -4 11.5 -29 t11.5 -39q0 -102 -121 -102q-113 0 -113 106q0 41 21 60v1036q-25 20 -25 57q0 96 121 97q59 0 85 -21.5t26 -71.5q-1 -37 -17 -53z" />
<glyph unicode="l" horiz-adv-x="440" d="M125 143v1020q-20 45 -21 70q0 66 25 88t100 22q45 0 81 -26.5t36 -69.5q0 -49 -31 -90v-1020q33 -27 33 -61q0 -29 -36 -57.5t-87 -28.5t-85 26.5t-34 73.5q1 20 19 53z" />
<glyph unicode="m" horiz-adv-x="1515" d="M315 522v-385q16 -29 17 -53q0 -49 -24.5 -71.5t-82.5 -22.5q-119 0 -119 100q0 16 9.5 36.5t9.5 23.5v616q-20 37 -21 72q0 94 136 94q43 0 66.5 -25.5t23.5 -64.5q0 -37 -15 -64v-78q281 231 402 232q123 0 123 -144v-98q297 242 432 242q53 0 85 -30t32 -83v-690 q23 -20 22 -53q0 -43 -41 -64.5t-90 -21.5q-51 0 -75.5 17.5t-24.5 68.5q0 35 18 49v559q0 45 -33 45q-82 0 -325 -207v-391q0 -86 -28 -113.5t-99 -27.5q-96 0 -97 82q0 33 33 69v535q0 45 -35 45q-80 0 -299 -199z" />
<glyph unicode="n" horiz-adv-x="970" d="M322 543v-430q14 -20 14 -50q0 -37 -39 -55t-88 -18q-43 0 -73 17.5t-30 52t25 57.5v319q-31 18 -31 68q0 41 31 119v163q-16 29 -16 62q0 31 40 57.5t87 26.5q100 0 100 -72q0 -29 -20 -63v-80q258 215 374 215q55 0 104.5 -43t49.5 -92v-668q12 -37 12 -53 q0 -86 -117 -86q-104 0 -104 78q0 25 18 53v573q0 10 -18 24.5t-29 14.5q-65 0 -290 -190z" />
<glyph unicode="o" horiz-adv-x="1007" d="M629 918q90 0 154.5 -39t96 -101.5t46 -123t14.5 -124.5q0 -113 -52 -216t-106 -156q-117 -115 -209 -155t-229 -40q-102 0 -192.5 84t-90.5 242q0 268 166 448.5t402 180.5zM590 758q-127 0 -231.5 -133t-104.5 -306q0 -88 39 -142t96 -54q127 0 236 106 q123 119 123 291q0 238 -158 238z" />
<glyph unicode="p" horiz-adv-x="1019" d="M315 760v-105h2q94 127 188.5 184.5t223.5 57.5q106 0 173 -73.5t67 -200.5q0 -147 -53.5 -273.5t-135.5 -206.5t-174 -124t-176 -44q-70 0 -115 43v-477q18 -33 19 -59q0 -86 -133 -86q-94 0 -95 74q0 43 19 75v1203q-20 29 -21 59q0 49 31 72.5t72 23.5q123 0 123 -88 q0 -12 -7.5 -32.5t-7.5 -22.5zM315 406v-205q35 -68 105 -68q121 0 238.5 142.5t117.5 322.5q0 59 -25.5 97t-76.5 38q-88 0 -207 -121q-89 -91 -152 -206z" />
<glyph unicode="q" horiz-adv-x="1032" d="M711 -489v806h-2q-51 -131 -163 -232t-251 -101q-16 0 -36.5 2t-61.5 18t-71 44t-53.5 86.5t-23.5 137.5q0 291 165 457t400 166q135 0 210 -29.5t75 -72.5v-1186q49 37 109 102q14 53 67 53q31 0 50.5 -22.5t19.5 -61.5q0 -51 -138.5 -169.5t-185.5 -118.5 q-110 0 -110 121zM588 735q-125 0 -235.5 -110.5t-110.5 -298.5q0 -47 9 -82t21.5 -53.5t27.5 -29.5t25.5 -14.5t18.5 -3.5q96 0 209 159t160 407q-35 26 -125 26z" />
<glyph unicode="r" horiz-adv-x="776" d="M125 121v653l-16 53q0 29 34.5 51.5t83.5 22.5q45 0 73 -18.5t28 -48.5q0 -33 -13 -48v-71h2q201 182 328 182q53 0 90 -59.5t37 -190.5q0 -94 -102 -94q-94 0 -95 55q0 27 11 54q0 45 -25 45q-29 0 -101.5 -54.5t-144.5 -138.5v-375q25 -25 25 -57q0 -47 -33 -69.5 t-112 -22.5q-96 0 -97 80q0 33 27 51z" />
<glyph unicode="s" horiz-adv-x="1028" d="M633 930q104 0 170.5 -31t66.5 -86q0 -37 -21.5 -58.5t-57.5 -21.5q-35 0 -49.5 22.5t-108.5 22.5q-145 0 -252 -63.5t-107 -134.5q0 -53 58 -54q23 0 50.5 7.5l69.5 19.5t68 18q18 4 58 15.5t62 15.5t52.5 9t57.5 5q96 0 159.5 -54t63.5 -152q0 -115 -67.5 -205 t-168 -136t-191.5 -70t-159 -24q-111 0 -197 50.5t-86 121.5q0 47 27 78t76 31q39 0 56.5 -17.5t17.5 -35.5q0 -16 -7 -29q41 -45 121 -45q76 0 163 27.5t155.5 86t68.5 132.5q0 84 -84 84q-27 0 -53.5 -6.5t-67 -19.5t-67.5 -19q-168 -45 -246 -45q-82 0 -131 54t-49 136 q0 154 176 262.5t373 108.5z" />
<glyph unicode="t" horiz-adv-x="962" d="M260 893v147q-12 16 -12 52q0 72 129 71q92 0 92 -61q0 -27 -18 -51v-125l258 41q16 16 39 16q35 0 55 -24.5t20 -57.5q0 -98 -71 -98q-25 0 -33 8l-268 -43v-553q0 -57 34.5 -57t131 61.5t153.5 132.5q-2 35 19.5 57.5t58.5 22.5q104 0 104 -98q0 -41 -93 -127 t-223 -160t-216 -74q-74 0 -117 48.5t-43 123.5v592l-133 -20q-16 -16 -41 -19q-82 4 -82 97q0 39 23.5 63.5t58.5 24.5q23 0 35 -13z" />
<glyph unicode="u" horiz-adv-x="968" d="M315 768v-553q0 -20 20.5 -41.5t45.5 -21.5q51 0 133 54t141 128v442q-12 29 -12 45q0 39 20.5 55.5t71.5 16.5q61 0 91 -22q22 -16 22 -59q0 -15 -2 -34v-659q18 -29 18 -53q0 -76 -131 -76q-92 0 -92 63q0 8 3 16.5t7 17.5t6 13v47q-170 -182 -352 -182 q-66 2 -123 56.5t-57 123.5v619q0 6 -6 22.5t-6 26.5q0 86 120 86q37 0 68 -20.5t31 -61.5q-1 -24 -17 -49z" />
<glyph unicode="v" horiz-adv-x="864" d="M342 -18q-106 0 -109 112q0 45 -71 254q-104 295 -107 408q-14 18 -14 47q0 35 32.5 62.5t88.5 27.5q47 0 75.5 -26.5t28.5 -49.5q0 -29 -18 -61q0 -92 53 -275l68 -223q51 139 141 285q76 121 141 264q25 55 51.5 79.5t69.5 24.5q92 0 92 -86q0 -27 -16.5 -62.5 t-37.5 -68.5l-65 -95q-43 -62 -71 -110q-174 -276 -221 -426q-29 -81 -111 -81z" />
<glyph unicode="w" horiz-adv-x="1284" d="M260 846q0 -23 -14 -55l116 -500h5l200 440q-20 43 -20 82q0 35 29.5 55.5t78.5 20.5q94 0 95 -158l141 -432h4q23 94 96 225q62 128 63 217q0 10 -1 21q-14 29 -15 53q0 37 40 61.5t89 24.5q35 0 60.5 -22.5t25.5 -53.5q0 -45 -22 -65q-20 -172 -98 -309 q-106 -211 -152 -388q10 -39 -9.5 -58t-80.5 -19q-94 0 -98 77l-146 469l-205 -442q-8 -104 -106 -104q-49 0 -69.5 25.5t-24.5 86.5l-162 654q-23 16 -23 61q0 51 30 78t69 27q104 0 104 -72z" />
<glyph unicode="x" horiz-adv-x="897" d="M451 326l-230 -285q-2 -20 -5 -31.5t-21.5 -22t-51 -10.5t-67.5 30t-35 79q0 33 14.5 51.5t34.5 18.5l229 284q-49 39 -118.5 119t-120.5 166q-35 14 -35 66q0 39 39 70.5t84 31.5q68 0 78 -80q18 -47 57 -97t59 -70l74 -71q39 53 209 259q0 72 74 71q39 0 74.5 -30.5 t35.5 -69.5q0 -53 -45 -74l-219 -274q303 -295 303 -406q0 -35 -25.5 -58.5t-68.5 -23.5q-53 0 -78 56q-106 170 -245 301z" />
<glyph unicode="y" horiz-adv-x="964" d="M449 57l-383 664q-43 31 -43 80q0 39 37.5 65.5t74.5 26.5q55 0 81 -31q22 -26 22 -63v-13l299 -524l211 543q2 39 24.5 66.5t69.5 27.5q51 0 83.5 -23.5t32.5 -62.5q0 -45 -47 -72l-362 -884q-63 -156 -141 -214.5t-181 -58.5q-86 0 -152.5 45t-90.5 129 q-4 12 -19.5 27.5t-15.5 44.5q0 43 25.5 68.5t70.5 25.5q106 0 107 -78q0 -6 -11 -43q2 -25 27 -43t59 -18q57 0 105.5 69.5t116.5 245.5z" />
<glyph unicode="z" horiz-adv-x="935" d="M82 139l520 576h-373q-2 -106 -84 -107q-80 0 -79 94q0 90 28.5 129t91.5 39h523q37 31 92 31q37 0 61.5 -21.5t24.5 -52.5q0 -61 -43 -96l-522 -575h393q18 96 90 96q80 0 80 -119q0 -152 -107 -151q-41 0 -63 18h-529q-23 -14 -73 -18q-90 0 -90 71q0 29 16 55.5 t43 30.5z" />
<glyph unicode="{" horiz-adv-x="745" d="M520 -471q-127 0 -195.5 67.5t-68.5 188.5q0 43 11.5 134t11.5 136q0 205 -37 272.5t-154 67.5q-63 0 -63 84q0 92 81 92q127 0 165 83t38 356q0 188 86 288.5t242 100.5q59 0 80.5 -21.5t21.5 -62.5q0 -49 -24.5 -67.5t-81.5 -16.5q-66 2 -100.5 -58.5t-34.5 -154.5 v-184q0 -141 -44 -241.5t-137 -117.5q88 -20 119 -115.5t31 -302.5q0 -49 -11.5 -131t-11.5 -116q0 -119 82 -119q45 0 86 15t60 15q68 0 67 -98q0 -51 -43 -72.5t-176 -21.5z" />
<glyph unicode="|" horiz-adv-x="540" d="M180 -371v1741q-23 39 -22 88q0 78 131 78q100 0 100 -78q0 -72 -29 -88v-1741q33 -25 33 -71q0 -33 -29.5 -51.5t-76.5 -18.5q-119 0 -119 92q0 16 12 49z" />
<glyph unicode="}" horiz-adv-x="745" d="M221 1399q127 0 195.5 -67.5t68.5 -188.5q0 -43 -11 -134t-11 -137q0 -205 37 -272.5t153 -67.5q63 0 64 -83q0 -92 -82 -93q-127 0 -165 -83t-38 -355q0 -188 -86 -288.5t-242 -100.5q-59 0 -80.5 21.5t-21.5 62.5q0 47 24.5 66.5t82.5 17.5q66 -2 100.5 58.5 t34.5 154.5v184q0 141 44 241.5t136 117.5q-88 20 -119 115.5t-31 299.5q0 49 11.5 132t11.5 118q0 119 -82 119q-45 0 -86 -15.5t-59 -15.5q-68 0 -68 97q0 51 42 73.5t177 22.5z" />
<glyph unicode="~" horiz-adv-x="1134" d="M731 262q-72 0 -117 31t-108 108q-63 74 -103 74q-63 0 -116 -110q-47 -98 -82 -99q-125 0 -125 84q0 68 57 105q70 113 134.5 160t154.5 47q61 0 103 -32t96 -104q37 -47 58.5 -64.5t45.5 -17.5q45 0 66.5 24t27.5 77q6 76 24.5 106.5t59.5 30.5t72 -25.5t31 -62.5 q0 -145 -86.5 -238.5t-192.5 -93.5z" />
<glyph unicode="&#xa1;" horiz-adv-x="477" d="M266 909q33 0 58.5 -30.5t25.5 -67.5q0 -59 -42 -109.5t-95 -50.5q-86 0 -86 123q0 70 29.5 102.5t109.5 32.5zM135 -322v695q-20 23 -20 88q0 35 47 63.5t102 28.5q45 0 67.5 -33t22.5 -69q0 -45 -24 -74v-690q29 -41 28 -76q0 -53 -32.5 -76.5t-124.5 -23.5 q-49 0 -70.5 20t-21.5 70q-1 40 26 77z" />
<glyph unicode="&#xa2;" d="M614 971v-559q123 33 168 120q-20 88 70 89q106 0 106 -70q0 -90 -103 -177t-241 -132v-236q27 -33 27 -55q0 -29 -25.5 -47.5t-74.5 -18.5q-94 0 -95 58q0 29 21 65v213q-63 -4 -102 0q-113 6 -196 102.5t-83 233.5q0 397 381 537v159q-25 25 -25 47q0 29 35 51.5 t90 22.5q35 0 56.5 -22.5t21.5 -59.5q0 -18 -31 -39v-129q61 10 97 11q94 0 163.5 -54.5t69.5 -113.5q0 -45 -39 -71t-74 -26q-53 0 -59 41q-4 27 -24.5 49.5t-55.5 22.5q-49 0 -78 -12zM272 582q0 -86 30 -141.5t85 -59.5q31 -4 80 0v545q-195 -106 -195 -344z" />
<glyph unicode="&#xa3;" d="M889 625l-361 -21q-33 -297 -133 -397q104 8 266 -39t226 -47q133 0 200 147q-8 10 -8 35q0 80 72 80q51 0 85 -32t34 -70q0 -51 -37 -62q-106 -258 -352 -258q-80 0 -229.5 48t-258.5 48q-90 0 -170 -32q-96 -41 -141 -41q-27 0 -46.5 29.5t-19.5 70.5t18.5 58.5 t59.5 29.5q106 29 156 104q66 96 86 316q-86 -12 -168 -12q-29 0 -49.5 27.5t-20.5 64.5q0 25 22.5 45t55.5 22l176 11q27 324 135.5 449.5t282.5 125.5q137 0 254 -100q23 4 47.5 -14.5t24.5 -43.5q0 -61 -38 -89.5t-81 -28.5q-27 0 -44.5 17t-17.5 38q-72 57 -155 57 q-94 0 -146.5 -88t-70.5 -311l346 20q23 14 59 15q27 0 43.5 -27t16.5 -59q0 -55 -21.5 -80t-48 -24.5t-49.5 18.5z" />
<glyph unicode="&#xa4;" horiz-adv-x="1134" d="M537 154q-143 0 -222 73l-57 -53q-4 -66 -82 -65q-41 0 -68.5 27.5t-27.5 74.5q0 29 17.5 53.5t43.5 26.5l62 55q-66 100 -66 270q0 178 76 283l-74 82q-23 6 -39 30.5t-16 53.5q0 49 26.5 72.5t69.5 23.5q39 0 61.5 -21.5t24.5 -52.5l56 -65q117 90 288 90 q125 0 203 -82l66 70q12 61 75 61q43 0 72 -25.5t29 -74.5q0 -29 -17.5 -54.5t-46.5 -27.5l-65 -70q78 -127 78 -260q0 -168 -80 -282l65 -68q23 -4 42.5 -29.5t19.5 -54.5q0 -49 -27 -73.5t-68 -24.5q-43 0 -67.5 22.5t-24.5 53.5l-53 53q-114 -92 -274 -92zM543 334 q119 0 200.5 94t81.5 217q0 98 -65.5 192.5t-161.5 94.5q-123 0 -203 -90t-80 -234q0 -113 59.5 -193.5t168.5 -80.5z" />
<glyph unicode="&#xa5;" d="M514 150v67l-192 -10q-45 -27 -80 -27q-72 0 -72 96q0 33 21.5 58.5t50.5 25.5q49 0 73 -12l199 12v134l-195 -11q-41 -27 -75 -26q-74 0 -74 100q0 35 21.5 57.5t50.5 22.5q49 0 71 -10l201 10v31q-49 84 -216 231.5t-226 243.5q-63 25 -64 98q0 43 41 71.5t84 30.5 q39 0 65.5 -26.5t24.5 -63.5q37 -72 192.5 -220t198.5 -208h4q49 63 184.5 180t184.5 185q35 43 43 67q14 41 37 63.5t68 22.5q43 0 69.5 -23.5t26.5 -64.5q0 -45 -55 -118q-4 -6 -76 -90q-41 -47 -192.5 -174.5t-196.5 -202.5v-23l247 12q39 23 72 23q29 0 47.5 -21.5 t18.5 -58.5q0 -43 -24.5 -70.5t-61.5 -27.5q-31 0 -47 12l-252 -14v-131l247 14q31 20 72 21q29 0 47.5 -23t18.5 -57q0 -45 -22.5 -72t-63.5 -27q-31 0 -47 13l-252 -15v-78q23 -33 22 -55q0 -45 -33.5 -73.5t-101.5 -28.5q-57 0 -81.5 19.5t-24.5 76.5q-1 46 22 64z" />
<glyph unicode="&#xa6;" horiz-adv-x="540" d="M360 1155v-410q33 -25 33 -71q0 -33 -29.5 -51.5t-76.5 -18.5q-119 0 -119 92q0 25 12 49v410q-23 39 -22 88q0 78 131 78q100 0 100 -78q0 -72 -29 -88zM180 -156v410q-23 39 -22 88q0 78 131 78q100 0 100 -78q0 -72 -29 -88v-410q33 -25 33 -71q0 -33 -29.5 -51.5 t-76.5 -18.5q-119 0 -119 92q0 20 12 49z" />
<glyph unicode="&#xa7;" horiz-adv-x="1214" d="M723 1325q137 0 236.5 -59.5t99.5 -112.5q0 -33 -34 -66.5t-77 -33.5q-37 0 -54 16t-15 39q-57 53 -183 53q-137 0 -248.5 -65.5t-111.5 -163.5q0 -88 106 -88q53 0 184.5 20.5t192.5 20.5q145 0 227 -68.5t82 -202.5q0 -106 -67 -192q37 -55 37 -117 q0 -193 -195.5 -321.5t-447.5 -128.5q-193 0 -288 82.5t-95 171.5q0 41 26.5 69.5t65.5 28.5q76 0 94 -80q8 -39 60.5 -74t127.5 -35q195 0 323 77t128 190q0 98 -139 98q-43 0 -188.5 -26.5t-219.5 -24.5q-111 0 -186.5 66.5t-75.5 160.5q0 121 86 219q-39 53 -39 125 q0 139 100.5 239.5t229.5 141.5t258 41zM784 725q-55 0 -183 -21.5t-167 -21.5q-68 0 -110 12q-39 -47 -39 -116q0 -39 32.5 -61.5t79.5 -22.5q53 0 185.5 24.5t175.5 24.5q98 0 149 -25q25 43 25 92q-1 115 -148 115z" />
<glyph unicode="&#xa8;" horiz-adv-x="708" d="M170 1024q-39 0 -60.5 39t-21.5 80q0 119 107 119q98 0 98 -88q0 -78 -25.5 -114t-97.5 -36zM512 1030q-92 0 -92 111q0 51 23.5 87t72.5 36q41 0 75 -28t34 -79q0 -127 -113 -127z" />
<glyph unicode="&#xa9;" horiz-adv-x="1662" d="M702 -61q-96 0 -196 33.5t-191.5 99t-148.5 177t-57 251.5q0 150 67.5 303t176 272t256 193.5t298.5 74.5q68 0 147 -17t169 -61t162.5 -109.5t120.5 -171t48 -236.5q0 -168 -57 -307.5t-147 -230.5t-205 -153.5t-227 -90t-216 -27.5zM711 76q80 0 168 22.5t180 73.5 t165.5 125t121 189.5t47.5 252.5q0 121 -51.5 216.5t-130 147.5t-158.5 77.5t-152 25.5q-233 0 -432 -225t-199 -481q0 -86 30 -159t77 -121t105.5 -82t117 -48t111.5 -14zM696 242q-129 0 -207.5 61.5t-78.5 196.5q0 209 195.5 357.5t441.5 148.5q100 0 100 -146 q23 -16 22 -45q0 -23 -23.5 -44t-76.5 -21q-80 0 -80 49q0 8 4 20t4 21q0 29 -16 28q-127 0 -258 -110.5t-131 -259.5q0 -117 113 -117q115 0 215 60.5t122 129.5q14 35 52 35q41 0 65.5 -26.5t24.5 -61.5q0 -33 -70 -97.5t-188.5 -121.5t-229.5 -57z" />
<glyph unicode="&#xaa;" horiz-adv-x="839" d="M588 1073v84q0 55 -68 55q-115 0 -227 -57q2 -16 -20.5 -29.5t-49.5 -13.5q-33 0 -54.5 22.5t-23.5 57.5q0 27 20.5 45t47.5 14q164 90 358 90q82 0 129.5 -39.5t47.5 -105.5v-412q16 -27 16 -41q0 -25 -36 -38t-87 -13q-72 0 -72 39q0 8 3 14.5t8.5 13.5t7.5 11v59 q-49 -66 -151.5 -108.5t-207.5 -42.5q-78 0 -125 39t-47 96q0 119 128 201t278 82q80 0 125 -23zM289 809q78 0 185.5 52t105.5 104q0 33 -103 32q-98 -2 -174 -49t-76 -102q1 -37 62 -37z" />
<glyph unicode="&#xab;" horiz-adv-x="995" d="M283 209l-203 276q-43 31 -43 90q0 23 14.5 49.5t32.5 39.5l291 288q23 57 98 58q35 0 65.5 -27t30.5 -65q0 -33 -23.5 -57.5t-53.5 -29.5l-248 -260l174 -247q23 0 43 -24t20 -58q0 -39 -30.5 -68t-69.5 -29q-82 1 -98 64zM692 209l-203 276q-43 31 -43 90 q0 23 14.5 49.5t33.5 39.5l290 288q23 57 99 58q35 0 65.5 -27t30.5 -65q0 -33 -22.5 -58.5t-55.5 -28.5l-248 -260l174 -247q23 0 43.5 -24t20.5 -58q0 -37 -31 -67t-67 -30q-85 1 -101 64z" />
<glyph unicode="&#xac;" horiz-adv-x="1134" d="M825 582h-585q-37 -12 -64 -13q-76 0 -76 88q0 115 84 115q35 0 56 -10h641q141 0 141 -94q0 -49 -16 -78v-213q16 -20 16 -53q0 -41 -27.5 -64.5t-62.5 -23.5q-57 0 -92 20t-35 55q0 53 20 80v191z" />
<glyph unicode="&#xad;" horiz-adv-x="702" d="M475 471l-239 -22q-27 -35 -72 -35q-31 0 -55.5 32.5t-24.5 77.5q0 51 25.5 81t58.5 30q37 0 53 -21l244 21q29 25 57 24q41 0 67.5 -29.5t26.5 -78.5q0 -41 -26.5 -74t-59.5 -33q-43 0 -55 27z" />
<glyph unicode="&#xae;" horiz-adv-x="1662" d="M705 -61q-98 0 -201 33.5t-194 99t-149.5 177t-58.5 251.5q0 203 113 398.5t301.5 320t390.5 124.5q68 0 149 -17t172 -61t163.5 -109.5t121 -171t48.5 -236.5q0 -168 -57.5 -307.5t-147.5 -230.5t-205 -153.5t-227.5 -90t-218.5 -27.5zM713 76q102 0 214.5 38t221 112.5 t179.5 208.5t71 306q0 98 -35 179t-89 132.5t-122 87.5t-131.5 51t-120.5 15q-156 0 -305.5 -105.5t-240.5 -270t-91 -330.5q0 -106 45 -192.5t115 -134.5t144.5 -72.5t144.5 -24.5zM717 451v-134q0 -106 -125 -106q-31 0 -41 8t-10 39q0 27 10 57v578q0 39 20.5 59.5 t49.5 20.5q51 0 92 -27q147 82 260 82q174 0 174 -149q0 -207 -338 -334q115 -129 176.5 -129t67.5 53q2 18 17 31.5t38 13.5q35 0 57.5 -20.5t22.5 -51.5q0 -61 -76 -114.5t-145 -53.5q-61 0 -114.5 37.5t-135.5 139.5zM717 823v-188q127 41 196.5 96t69.5 113q0 53 -51 53 q-88 0 -215 -74z" />
<glyph unicode="&#xaf;" horiz-adv-x="708" d="M532 1126l-335 -39q-29 -8 -50 -8q-29 0 -47 23.5t-18 56.5q0 39 21.5 61.5t43.5 22.5q16 0 41 -12l322 37q43 14 49 14q29 0 48.5 -22.5t19.5 -57.5q0 -45 -33 -65.5t-62 -10.5z" />
<glyph unicode="&#xb0;" horiz-adv-x="618" d="M346 1364q100 0 157.5 -70.5t57.5 -181.5q0 -121 -73.5 -206t-202.5 -85q-92 0 -150.5 77t-58.5 163q0 152 75.5 227.5t194.5 75.5zM338 1223q-57 0 -90 -38t-33 -100q0 -123 94 -122q53 0 82 44t29 113q0 47 -22.5 75t-59.5 28z" />
<glyph unicode="&#xb1;" horiz-adv-x="1134" d="M645 852v-133h223q6 2 28 12t34 10q86 0 86 -110q0 -51 -23.5 -79t-62.5 -28q-23 0 -62 15h-223v-146q23 -31 23 -55q0 -45 -31 -70.5t-68 -25.5q-55 0 -91 22.5t-36 57.5q0 49 23 79v138h-219q-55 -16 -66 -17q-82 0 -82 92q0 61 23.5 91t64.5 28q25 0 58 -14h221v135 q-23 29 -23 68q0 29 26 50t71 21q59 0 91 -26.5t32 -59.5q-1 -26 -17 -55zM868 0h-622q-57 -16 -66 -16q-82 0 -82 92q0 119 88 119q25 0 58 -15h624q6 2 28 12.5t34 10.5q41 0 63.5 -30t22.5 -81t-23.5 -79.5t-62.5 -28.5q-19 0 -62 16z" />
<glyph unicode="&#xb2;" horiz-adv-x="778" d="M260 907l262 11q37 0 37 6q2 31 24.5 53t57.5 22q90 0 90 -96q0 -113 -90 -115l-455 -20q-66 -4 -94.5 15.5t-28.5 66.5q0 121 77 198.5t208 137.5q176 76 176 180q0 61 -92 61q-45 0 -73.5 -13t-38 -27.5t-19.5 -38.5q-8 -29 -14 -41.5t-30 -25.5t-67 -13 q-37 0 -61.5 20.5t-24.5 44.5q0 78 87.5 154t273.5 76q113 0 180.5 -45t67.5 -136q0 -106 -64.5 -171.5t-181.5 -120.5q-100 -47 -149.5 -88.5t-57.5 -94.5z" />
<glyph unicode="&#xb3;" horiz-adv-x="845" d="M555 1417l-256 -28q0 -94 -82 -95q-74 0 -74 119q0 102 76 103q55 0 238.5 22.5t214.5 22.5q80 0 80 -72q0 -49 -129 -195q82 4 135 -48t53 -148q0 -160 -129 -256.5t-315 -96.5q-74 0 -134.5 23t-94.5 54.5t-51 59t-17 46.5q0 31 29.5 56.5t72.5 25.5q49 0 74 -54 q33 -74 137 -73q106 0 175 56t69 136q0 96 -82 96q-63 0 -95 -39.5t-67 -39.5q-29 0 -48.5 15t-19.5 42q0 63 76 86q60 20 164 182z" />
<glyph unicode="&#xb4;" horiz-adv-x="708" d="M586 1235l-152 -158q-4 -27 -28.5 -47t-59.5 -20t-56.5 20.5t-21.5 52.5q0 23 14.5 43.5t34.5 24.5l156 160q-10 35 14.5 53t61.5 18q39 0 61.5 -22.5t22.5 -54.5q0 -56 -47 -70z" />
<glyph unicode="&#xb5;" horiz-adv-x="970" d="M643 344v422q-12 33 -12 51q0 35 28.5 55.5t67.5 20.5q47 0 83 -18.5t38 -49.5l-14 -59v-651q14 -25 14 -52q0 -31 -34 -52t-95 -21q-41 0 -65.5 16.5t-24.5 36.5q0 18 16 51v70q-162 -188 -289 -189q-31 0 -53 19v-369q31 -18 31 -67q0 -37 -36 -58.5t-79 -21.5 q-53 0 -87 18.5t-34 48.5q0 53 15 80v1143q-12 37 -13 49q0 39 35 60.5t86 21.5q39 0 72 -20.5t33 -53.5q0 -43 -23 -57v-557q0 -35 20.5 -54.5t51.5 -19.5q53 0 132 60.5t136 146.5z" />
<glyph unicode="&#xb6;" horiz-adv-x="1122" d="M500 92v580q-102 -25 -185 -25q-139 0 -210.5 59.5t-71.5 153.5q0 117 112.5 224.5t299 173t389.5 65.5q33 20 69 20q121 0 121 -94q0 -47 -23 -57v-1077q25 -29 25 -60q0 -78 -127 -78q-82 0 -82 66q0 20 8 53v1082q-78 0 -149 -17v-1063q27 -16 26 -51q0 -31 -44 -55.5 t-83 -24.5q-45 0 -71.5 17.5t-26.5 46.5q0 45 23 61zM500 829v289q-133 -43 -204 -108.5t-71 -132.5q0 -33 33 -53.5t92 -20.5q70 -1 150 26z" />
<glyph unicode="&#xb7;" horiz-adv-x="458" d="M186 309q-37 0 -67.5 33t-30.5 90q0 51 35 94t92 43q98 0 98 -123q0 -57 -32 -97t-95 -40z" />
<glyph unicode="&#xb8;" horiz-adv-x="708" d="M461 25q0 -41 -33 -50l-51 -86q61 2 102 -40t41 -119q0 -96 -67.5 -161t-180.5 -65q-55 0 -90 29q-14 -10 -32 -10q-16 0 -31 22.5t-15 48.5q0 31 21.5 56.5t44.5 25.5q12 0 24.5 -9t12.5 -19q33 -18 69 -19q57 0 91 27t34 68q0 57 -53 57q-12 0 -33 -10q-8 -14 -47 -15 q-20 0 -34.5 15.5t-14.5 38.5q0 39 27 61l106 170q0 20 14.5 34.5t34.5 14.5q23 0 41.5 -20t18.5 -45z" />
<glyph unicode="&#xb9;" horiz-adv-x="495" d="M408 1450v-530q0 -4 4 -30t4 -38q0 -39 -39 -61.5t-109 -22.5q-80 0 -80 51q0 18 7.5 34.5t22.5 40.5t18 26v401q-4 0 -43 -34t-60 -34q-27 0 -47 17.5t-20 46.5q0 45 106 123q33 25 68.5 58.5t57 49t44.5 15.5q31 0 57.5 -16.5t26.5 -43.5q0 -4 -18 -53z" />
<glyph unicode="&#xba;" horiz-adv-x="835" d="M760 1069q0 -137 -128 -264t-304 -127q-119 0 -185.5 65.5t-66.5 157.5q0 174 126 307t312 133q125 0 185.5 -87t60.5 -185zM586 1075q0 135 -94.5 135t-168 -88t-73.5 -207q0 -106 100 -106q88 0 162 83t74 183z" />
<glyph unicode="&#xbb;" horiz-adv-x="995" d="M350 578l-200 251q-74 14 -74 84q0 39 27.5 68t62.5 29q76 0 106 -64l242 -282q43 -27 43 -89q0 -57 -45 -90l-248 -278q0 -27 -28.5 -45.5t-67.5 -18.5q-41 0 -74 27t-33 66q0 31 20.5 55t45.5 28zM756 578l-201 251q-74 14 -74 84q0 39 28 68t62 29q76 0 107 -64 l242 -282q43 -27 43 -89q0 -57 -45 -90l-248 -278q0 -27 -29 -45.5t-68 -18.5q-41 0 -73.5 27t-32.5 66q0 31 20.5 55t44.5 28z" />
<glyph unicode="&#xbc;" horiz-adv-x="1544" d="M217 51q0 27 10.5 44.5t27.5 29.5t21 20l629 1106q16 94 80 95q45 0 85 -28t40 -67q0 -29 -19.5 -51t-39.5 -29l-625 -1101q-2 -45 -36 -70t-75 -25q-98 0 -98 76zM389 1214v-530q0 -4 4 -29.5t4 -38.5q0 -39 -39 -61.5t-108 -22.5q-80 0 -80 52q0 18 7 34.5t22.5 40 t17.5 25.5v399q-4 0 -43 -33.5t-59 -33.5q-27 0 -47.5 17.5t-20.5 45.5q0 45 107 125q33 25 68.5 58.5t57 49t44.5 15.5q31 0 57.5 -16.5t26.5 -42.5q-1 -11 -19 -54zM1303 666v-297l102 14q29 23 47 23q29 0 49.5 -19.5t20.5 -62.5q0 -78 -64 -78q-33 0 -53 16l-102 -12 v-123q33 -16 32 -51q0 -86 -141 -86q-41 0 -63.5 22.5t-22.5 46.5q0 41 18 54v114l-319 -39q-49 -12 -57 -12q-74 0 -74 90q0 33 53 74l387 405q14 53 113 54q37 0 64.5 -20.5t27.5 -49.5q0 -36 -18 -63zM1126 348v240l-260 -273z" />
<glyph unicode="&#xbd;" horiz-adv-x="1560" d="M221 49q0 29 10.5 46.5t27.5 30.5t22 19l628 1106q14 94 80 95q43 0 84 -29t41 -66q0 -29 -20.5 -51t-40.5 -29l-623 -1103q-2 -45 -36 -69t-75 -24q-98 0 -98 74zM389 1214v-528q0 -6 5 -31.5t5 -38.5q0 -37 -40 -60.5t-109 -23.5q-33 0 -56.5 14.5t-23.5 37.5 q0 18 7 35.5t22.5 40t17.5 24.5v399q-4 0 -43 -33.5t-59 -33.5q-27 0 -47.5 17.5t-20.5 45.5q0 45 107 125q33 25 68.5 58.5t57 49t44.5 15.5q31 0 57.5 -16.5t26.5 -42.5q-1 -11 -19 -54zM1004 119l264 10q35 0 35 8q2 31 24.5 53.5t56.5 22.5q90 0 91 -96q0 -115 -91 -115 l-454 -20q-68 -4 -95.5 14t-27.5 65q0 119 75.5 197t209.5 137q176 76 176 183q0 61 -92 61q-45 0 -74 -13.5t-39 -27.5t-19 -41q-8 -29 -14 -40t-30.5 -24.5t-65.5 -13.5q-37 0 -61.5 20.5t-24.5 45.5q0 78 87 153.5t273 75.5q113 0 180.5 -45t67.5 -135q0 -106 -64.5 -172 t-181.5 -121q-100 -47 -149 -88t-57 -94z" />
<glyph unicode="&#xbe;" horiz-adv-x="1861" d="M526 49q0 29 11.5 46.5t29 29.5t21.5 20l629 1106q16 94 81 95q43 0 83 -28t40 -67q0 -29 -19.5 -51t-39.5 -29l-625 -1103q-2 -45 -35.5 -69t-74.5 -24q-101 0 -101 74zM537 1182l-256 -29q0 -94 -82 -94q-74 0 -74 119q0 102 76 102q57 0 240.5 23.5t211.5 23.5 q80 0 80 -72q0 -47 -129 -196q82 4 135.5 -48.5t53.5 -148.5q0 -160 -129 -256t-316 -96q-74 0 -134 22.5t-94 54t-51.5 59.5t-17.5 46q0 31 30 57.5t73 26.5q47 0 73 -55q31 -76 137.5 -76t175 57.5t68.5 139.5q0 94 -82 94q-63 0 -95 -40t-66 -40q-29 0 -48.5 15.5 t-19.5 41.5q0 63 76 86q60 21 164 183zM1622 664v-295l102 12q20 20 48 20q61 0 61 -77q0 -76 -55 -76q-39 0 -54 14l-102 -14v-121q33 -16 33 -51q0 -86 -142 -86q-41 0 -63.5 22.5t-22.5 46.5q0 39 19 52v116l-320 -41q-49 -12 -57 -12q-74 0 -74 90q0 35 54 76l387 403 q14 53 112 54q37 0 64.5 -19.5t27.5 -50.5q0 -34 -18 -63zM1446 348v240l-260 -273z" />
<glyph unicode="&#xbf;" horiz-adv-x="950" d="M535 913q35 0 64.5 -29.5t29.5 -74.5q0 -154 -127 -154q-90 0 -90 123q0 53 31 94t92 41zM504 580q117 0 169 -40t52 -139q0 -90 -62.5 -167.5t-218.5 -198.5q-137 -109 -185 -169.5t-48 -115.5q0 -37 42 -66.5t116 -29.5q172 0 280 160q-4 43 22.5 74.5t57.5 31.5 q49 0 83 -28.5t34 -75.5q0 -29 -12.5 -54.5t-28.5 -27.5q-33 -41 -59.5 -68.5t-87 -75t-143.5 -73t-183 -25.5q-137 0 -230.5 73t-93.5 169q0 90 57.5 169t247.5 238q154 127 196 170t42 78q0 41 -57 41q-47 0 -70 -19.5t-23 -43.5q0 -20 -21.5 -37t-51.5 -17 q-104 0 -105 80q0 72 72 129.5t209 57.5z" />
<glyph unicode="&#xc0;" horiz-adv-x="1280" d="M885 494l-506 -33q-133 -264 -139 -295q-2 -14 -2 -90q0 -86 -121 -86q-53 0 -80 26.5t-27 67.5q0 39 88 221l25 49l356 701q59 111 72 170q-2 55 30.5 96t88.5 41q49 0 77.5 -24.5t28.5 -53.5q0 -18 -7 -39.5t-7 -36.5q0 -29 45 -127l106.5 -221t77.5 -160 q246 -502 246 -589q0 -57 -33 -89t-88 -32q-47 0 -77.5 21.5t-30.5 56.5q0 18 6 41.5t6 31.5q0 54 -135 353zM459 623l358 24l-166 377zM584 1724l129 -149q20 -4 35.5 -22.5t15.5 -43.5q0 -37 -25.5 -56t-62.5 -19q-31 0 -49.5 20.5t-18.5 46.5l-133 150q-47 18 -47 69 q0 80 86 80q33 0 50.5 -22.5t19.5 -53.5z" />
<glyph unicode="&#xc1;" horiz-adv-x="1280" d="M885 494l-506 -33q-133 -264 -139 -295q-2 -14 -2 -90q0 -86 -121 -86q-53 0 -80 26.5t-27 67.5q0 39 88 221l25 49l356 701q59 111 72 170q-2 55 30.5 96t88.5 41q49 0 77.5 -24.5t28.5 -53.5q0 -18 -7 -39.5t-7 -36.5q0 -29 45 -127l106.5 -221t77.5 -160 q246 -502 246 -589q0 -57 -33 -89t-88 -32q-47 0 -77.5 21.5t-30.5 56.5q0 18 6 41.5t6 31.5q0 54 -135 353zM459 623l358 24l-166 377zM887 1661l-152 -158q-4 -27 -28.5 -48t-59.5 -21t-56.5 20.5t-21.5 52.5q0 25 14.5 44.5t34.5 23.5l156 162q-10 35 14.5 52t61.5 17 q39 0 61.5 -21.5t22.5 -53.5q0 -56 -47 -70z" />
<glyph unicode="&#xc2;" horiz-adv-x="1280" d="M885 494l-506 -33q-133 -264 -139 -295q-2 -14 -2 -90q0 -86 -121 -86q-53 0 -80 26.5t-27 67.5q0 39 88 221l25 49l356 701q59 111 72 170q-2 55 30.5 96t88.5 41q49 0 77.5 -24.5t28.5 -53.5q0 -18 -7 -39.5t-7 -36.5q0 -29 45 -127l106.5 -221t77.5 -160 q246 -502 246 -589q0 -57 -33 -89t-88 -32q-47 0 -77.5 21.5t-30.5 56.5q0 18 6 41.5t6 31.5q0 54 -135 353zM459 623l358 24l-166 377zM760 1714l133 -188q41 -35 41 -68q0 -31 -24.5 -53.5t-65.5 -22.5q-31 0 -47.5 24t-12.5 50l-106 152l-143 -158q2 -27 -17.5 -47.5 t-46.5 -20.5q-37 0 -61.5 26t-24.5 50q0 39 51 74l174 197q41 41 72 40q41 0 78 -55z" />
<glyph unicode="&#xc3;" horiz-adv-x="1280" d="M885 494l-506 -33q-133 -264 -139 -295q-2 -14 -2 -90q0 -86 -121 -86q-53 0 -80 26.5t-27 67.5q0 39 88 221l25 49l356 701q59 111 72 170q-2 55 30.5 96t88.5 41q49 0 77.5 -24.5t28.5 -53.5q0 -18 -7 -39.5t-7 -36.5q0 -29 45 -127l106.5 -221t77.5 -160 q246 -502 246 -589q0 -57 -33 -89t-88 -32q-47 0 -77.5 21.5t-30.5 56.5q0 18 6 41.5t6 31.5q0 54 -135 353zM459 623l358 24l-166 377zM776 1440q-86 0 -147 73q-43 47 -72 48q-53 0 -76 -64q-23 -49 -69 -49q-41 0 -60.5 21.5t-19.5 52.5q0 10 14 27.5t16 19.5 q41 68 86.5 95.5t118.5 27.5q51 0 121 -62q61 -61 98 -61q29 0 44.5 22.5t13.5 48.5q-2 31 19.5 45.5t51.5 14.5q33 0 55.5 -17.5t22.5 -37.5q0 -16 -10 -37q-25 -82 -72 -125t-135 -43z" />
<glyph unicode="&#xc4;" horiz-adv-x="1280" d="M885 494l-506 -33q-133 -264 -139 -295q-2 -14 -2 -90q0 -86 -121 -86q-53 0 -80 26.5t-27 67.5q0 39 88 221l25 49l356 701q59 111 72 170q-2 55 30.5 96t88.5 41q49 0 77.5 -24.5t28.5 -53.5q0 -18 -7 -39.5t-7 -36.5q0 -29 45 -127l106.5 -221t77.5 -160 q246 -502 246 -589q0 -57 -33 -89t-88 -32q-47 0 -77.5 21.5t-30.5 56.5q0 18 6 41.5t6 31.5q0 54 -135 353zM459 623l358 24l-166 377zM475 1436q-39 0 -60.5 38.5t-21.5 79.5q0 119 107 119q98 0 98 -88q0 -78 -25.5 -113.5t-97.5 -35.5zM817 1440q-92 0 -92 110 q0 51 23.5 87t72.5 36q41 0 75 -27.5t34 -78.5q0 -127 -113 -127z" />
<glyph unicode="&#xc5;" horiz-adv-x="1280" d="M885 494l-506 -33q-133 -264 -139 -295q-2 -14 -2 -90q0 -86 -121 -86q-53 0 -80 26.5t-27 67.5q0 39 88 221l25 49l356 701q59 111 72 170q-2 55 30.5 96t88.5 41q49 0 77.5 -24.5t28.5 -53.5q0 -18 -7 -39.5t-7 -36.5q0 -29 45 -127l106.5 -221t77.5 -160 q246 -502 246 -589q0 -57 -33 -89t-88 -32q-47 0 -77.5 21.5t-30.5 56.5q0 18 6 41.5t6 31.5q0 54 -135 353zM459 623l358 24l-166 377zM643 1397q-61 0 -101 52t-40 134q0 70 69.5 123t124.5 53q68 0 113 -46t45 -134q0 -82 -69.5 -132t-141.5 -50zM659 1501 q29 0 57.5 21.5t28.5 54.5q0 78 -47 78q-33 0 -60.5 -22.5t-27.5 -59.5q0 -72 49 -72z" />
<glyph unicode="&#xc6;" horiz-adv-x="1671" d="M997 549v-402q102 0 275.5 13.5t220.5 32.5q29 12 66 12q25 0 42 -22.5t17 -63.5q0 -55 -32 -82t-79 -27l-573 -26q-6 0 -37 -5.5t-53 -5.5q-84 0 -84 93q0 74 45 86v385l-371 -27q-121 -203 -162 -287t-41 -131t-37.5 -74.5t-91.5 -27.5q-43 0 -77.5 26.5t-34.5 71.5 q0 37 21.5 67.5t51.5 41.5q106 205 285 479q45 68 109 153l103 138l122 153l98 123q2 41 28 74t77 33q125 0 125 -62q0 -25 -11 -39l385 25q14 2 46 17.5t53 15.5q37 0 63.5 -29t26.5 -74q0 -51 -26.5 -81.5t-61.5 -30.5t-86 20l-402 -25v-380l328 24q14 2 57 15.5t60 13.5 q84 0 84 -74q0 -59 -31 -81.5t-88 -24.5zM805 692v350q-141 -180 -260 -372z" />
<glyph unicode="&#xc7;" horiz-adv-x="1146" d="M608 -25l-51 -86q61 2 102 -40t41 -119q0 -96 -67.5 -161t-181.5 -65q-53 0 -91 29q-14 -10 -30.5 -10t-31.5 22.5t-15 48.5q0 31 22.5 56.5t42.5 25.5q12 0 24.5 -9t12.5 -19q33 -18 72 -19q57 0 91 27t34 68q0 57 -54 57q-12 0 -32 -10q-10 -14 -47 -15 q-23 0 -37.5 15.5t-14.5 38.5q0 35 27 61l61 94q-190 4 -302.5 147.5t-112.5 415.5q0 162 73.5 346.5t222 326.5t328.5 142q166 0 276.5 -65.5t110.5 -142.5q0 -51 -29.5 -80t-76.5 -29q-82 0 -96 82q-6 29 -54.5 48.5t-117.5 19.5q-119 0 -223.5 -113t-160 -263.5 t-55.5 -283.5q0 -182 78 -281.5t184 -99.5q88 0 180.5 49t139.5 113q14 117 111 117q49 0 76.5 -29t27.5 -57q0 -59 -55 -127q-175 -179 -402 -226z" />
<glyph unicode="&#xc8;" horiz-adv-x="1136" d="M340 567v-397l565 39q27 31 66 31q49 0 81.5 -31t32.5 -66q0 -61 -38.5 -82.5t-126.5 -21.5l-578 -41q-31 -35 -117 -35q-45 0 -76.5 27.5t-31.5 77t26 90.5v385q-37 35 -37 94q0 57 37 94v328q-43 23 -43 80q0 55 31 80q-10 10 -10 32q0 33 32.5 53.5t82 20.5t77 -21.5 t27.5 -54.5l487 43q43 31 76 31q55 0 86 -27.5t31 -66.5q0 -53 -33 -87t-86 -34q-33 0 -70 16l-491 -45v-342l391 49q41 29 74 29q49 0 81 -32.5t32 -73.5q0 -104 -121 -105q-23 0 -47 14zM506 1690l127 -150q20 -4 36.5 -22.5t16.5 -42.5q0 -37 -25.5 -56.5t-64.5 -19.5 q-31 0 -49.5 20.5t-18.5 46.5l-133 150q-47 20 -47 70q0 80 88 79q62 1 70 -75z" />
<glyph unicode="&#xc9;" horiz-adv-x="1136" d="M340 567v-397l565 39q27 31 66 31q49 0 81.5 -31t32.5 -66q0 -61 -38.5 -82.5t-126.5 -21.5l-578 -41q-31 -35 -117 -35q-45 0 -76.5 27.5t-31.5 77t26 90.5v385q-37 35 -37 94q0 57 37 94v328q-43 23 -43 80q0 55 31 80q-10 10 -10 32q0 33 32.5 53.5t82 20.5t77 -21.5 t27.5 -54.5l487 43q43 31 76 31q55 0 86 -27.5t31 -66.5q0 -53 -33 -87t-86 -34q-33 0 -70 16l-491 -45v-342l391 49q41 29 74 29q49 0 81 -32.5t32 -73.5q0 -104 -121 -105q-23 0 -47 14zM805 1626l-152 -158q-4 -27 -28.5 -48t-59.5 -21t-56.5 20.5t-21.5 55.5 q0 23 14.5 43t35.5 22l155 162q-10 35 14.5 53.5t61.5 18.5q39 0 61.5 -22.5t22.5 -55.5q0 -56 -47 -70z" />
<glyph unicode="&#xca;" horiz-adv-x="1136" d="M340 567v-397l565 39q27 31 66 31q49 0 81.5 -31t32.5 -66q0 -61 -38.5 -82.5t-126.5 -21.5l-578 -41q-31 -35 -117 -35q-45 0 -76.5 27.5t-31.5 77t26 90.5v385q-37 35 -37 94q0 57 37 94v328q-43 23 -43 80q0 55 31 80q-10 10 -10 32q0 33 32.5 53.5t82 20.5t77 -21.5 t27.5 -54.5l487 43q43 31 76 31q55 0 86 -27.5t31 -66.5q0 -53 -33 -87t-86 -34q-33 0 -70 16l-491 -45v-342l391 49q41 29 74 29q49 0 81 -32.5t32 -73.5q0 -104 -121 -105q-23 0 -47 14zM674 1731l133 -189q41 -35 41 -67.5t-25.5 -54t-66.5 -21.5q-31 0 -46.5 22.5 t-11.5 48.5l-106 154l-143 -158q2 -29 -17.5 -48t-46.5 -19q-37 0 -61.5 25.5t-24.5 50.5q0 39 49 73l176 195q39 43 70 43q37 0 80 -55z" />
<glyph unicode="&#xcb;" horiz-adv-x="1136" d="M340 567v-397l565 39q27 31 66 31q49 0 81.5 -31t32.5 -66q0 -61 -38.5 -82.5t-126.5 -21.5l-578 -41q-31 -35 -117 -35q-45 0 -76.5 27.5t-31.5 77t26 90.5v385q-37 35 -37 94q0 57 37 94v328q-43 23 -43 80q0 55 31 80q-10 10 -10 32q0 33 32.5 53.5t82 20.5t77 -21.5 t27.5 -54.5l487 43q43 31 76 31q55 0 86 -27.5t31 -66.5q0 -53 -33 -87t-86 -34q-33 0 -70 16l-491 -45v-342l391 49q41 29 74 29q49 0 81 -32.5t32 -73.5q0 -104 -121 -105q-23 0 -47 14zM387 1423q-39 0 -60.5 39t-21.5 80q0 119 107 119q98 0 98 -88q0 -78 -25.5 -114 t-97.5 -36zM729 1427q-92 0 -92 111q0 51 23.5 87t72.5 36q41 0 75 -27.5t34 -79.5q0 -127 -113 -127z" />
<glyph unicode="&#xcc;" horiz-adv-x="477" d="M338 1128v-966q29 -41 29 -72q0 -39 -37 -69.5t-92 -30.5q-57 0 -91 28.5t-34 77.5q0 39 28 74v971q-25 16 -24 59q0 53 42 87t101 34q55 0 83 -33t28 -78t-33 -82zM176 1718l127 -149q53 -12 53 -66q0 -37 -25.5 -57.5t-64.5 -20.5q-31 0 -49 20.5t-18 47.5l-133 152 q-47 16 -48 69q0 80 88 80q31 0 49.5 -22.5t20.5 -53.5z" />
<glyph unicode="&#xcd;" horiz-adv-x="477" d="M338 1128v-966q29 -41 29 -72q0 -39 -37 -69.5t-92 -30.5q-57 0 -91 28.5t-34 77.5q0 39 28 74v971q-25 16 -24 59q0 53 42 87t101 34q55 0 83 -33t28 -78t-33 -82zM479 1653l-153 -158q-2 -27 -28 -48.5t-60 -21.5q-74 0 -78 74q2 25 16 44.5t33 23.5l156 162 q-10 35 14 52t61 17q39 0 61.5 -21.5t22.5 -54.5q0 -55 -45 -69z" />
<glyph unicode="&#xce;" horiz-adv-x="477" d="M338 1128v-966q29 -41 29 -72q0 -39 -37 -69.5t-92 -30.5q-57 0 -91 28.5t-34 77.5q0 39 28 74v971q-25 16 -24 59q0 53 42 87t101 34q55 0 83 -33t28 -78t-33 -82zM344 1718l133 -188q41 -35 41 -68q0 -31 -24.5 -53.5t-65.5 -22.5q-31 0 -47 23t-12 49l-107 152 l-143 -156q2 -29 -17.5 -48.5t-46.5 -19.5q-35 0 -59.5 25t-24.5 51q0 39 49 74l175 195q39 43 71 43q41 -1 78 -56z" />
<glyph unicode="&#xcf;" horiz-adv-x="477" d="M338 1128v-966q29 -41 29 -72q0 -39 -37 -69.5t-92 -30.5q-57 0 -91 28.5t-34 77.5q0 39 28 74v971q-25 16 -24 59q0 53 42 87t101 34q55 0 83 -33t28 -78t-33 -82zM59 1421q-39 0 -60.5 39t-21.5 80q0 119 107 119q98 0 98 -88q0 -78 -25.5 -114t-97.5 -36zM401 1425 q-92 0 -92 111q0 51 23.5 87t73.5 36q41 0 74.5 -27.5t33.5 -79.5q0 -127 -113 -127z" />
<glyph unicode="&#xd0;" horiz-adv-x="1288" d="M135 61q0 53 25 82v422l-60 -4q-25 -14 -37 -14q-29 0 -48 18.5t-19 48.5q0 45 23.5 74t56.5 33l84 6v451q-14 33 -15 67q0 33 32 60.5t91 27.5q51 0 72.5 -28.5t13.5 -65.5q203 96 422 96q184 0 316.5 -134t132.5 -296q0 -188 -64.5 -354t-183.5 -283 q-145 -139 -352 -218t-367 -79q-123 0 -123 90zM354 1063v-320l217 19q63 18 76 18q37 0 56.5 -24.5t19.5 -61.5q0 -45 -20.5 -74.5t-63.5 -29.5q-25 0 -74 12l-211 -20v-422q297 27 488 225q178 211 178 502q0 104 -83 193t-208 89q-187 0 -375 -106z" />
<glyph unicode="&#xd1;" horiz-adv-x="1253" d="M143 143v1014q-16 27 -16 62q0 43 28.5 72.5t84.5 29.5q61 0 85.5 -18.5t24.5 -59.5q0 -61 76 -201q96 -172 283 -368q174 -184 221 -283h4q-6 264 -6 805l-7 14q-5 10 -9.5 20.5t-4.5 20.5q0 47 29 69.5t70 22.5q47 0 83.5 -20t36.5 -57q0 -27 -16 -66v-1085 q25 -29 25 -56q0 -39 -25 -54t-88 -15q-43 0 -67.5 27.5t-47.5 82.5q-35 76 -127 202t-170 208q-217 231 -286 387h-5q6 -369 7 -754q20 -31 20 -61q0 -92 -100 -92q-127 0 -127 98q-1 30 24 55zM750 1425q-90 0 -148 76q-43 47 -72 47q-51 0 -75 -63q-20 -49 -70 -49 q-78 0 -78 73q0 8 5 15.5t14.5 17.5t11.5 14q39 66 85 94.5t118 28.5q57 0 121 -63q61 -61 100 -62q29 0 43 22.5t12 49.5q-2 31 19.5 45.5t52.5 14.5q33 0 55.5 -17.5t22.5 -38.5q0 -16 -11 -37q-25 -82 -71.5 -125t-134.5 -43z" />
<glyph unicode="&#xd2;" horiz-adv-x="1267" d="M737 1380q197 0 327 -155.5t130 -479.5q0 -334 -203 -558t-493 -224q-119 0 -208 51.5t-137.5 133t-71 171t-22.5 181.5q0 203 93.5 407.5t252 338.5t332.5 134zM715 1217q-104 0 -210 -105.5t-173.5 -268.5t-67.5 -319q0 -102 25.5 -188t89 -147.5t156.5 -61.5 q174 0 314 178t140 434q0 236 -71.5 357t-202.5 121zM606 1755l129 -149q53 -12 53 -66q0 -78 -90 -78q-31 0 -49 20.5t-18 47.5l-133 149q-47 18 -47 72q0 78 88 78q31 0 48 -21.5t19 -52.5z" />
<glyph unicode="&#xd3;" horiz-adv-x="1267" d="M737 1380q197 0 327 -155.5t130 -479.5q0 -334 -203 -558t-493 -224q-119 0 -208 51.5t-137.5 133t-71 171t-22.5 181.5q0 203 93.5 407.5t252 338.5t332.5 134zM715 1217q-104 0 -210 -105.5t-173.5 -268.5t-67.5 -319q0 -102 25.5 -188t89 -147.5t156.5 -61.5 q174 0 314 178t140 434q0 236 -71.5 357t-202.5 121zM932 1688l-152 -158q-4 -27 -28.5 -48.5t-59.5 -21.5t-56.5 20.5t-21.5 55.5q0 23 14.5 43t35.5 25l155 159q-10 35 14.5 53.5t61.5 18.5q39 0 61.5 -22.5t22.5 -55.5q0 -55 -47 -69z" />
<glyph unicode="&#xd4;" horiz-adv-x="1267" d="M737 1380q197 0 327 -155.5t130 -479.5q0 -334 -203 -558t-493 -224q-119 0 -208 51.5t-137.5 133t-71 171t-22.5 181.5q0 203 93.5 407.5t252 338.5t332.5 134zM715 1217q-104 0 -210 -105.5t-173.5 -268.5t-67.5 -319q0 -102 25.5 -188t89 -147.5t156.5 -61.5 q174 0 314 178t140 434q0 236 -71.5 357t-202.5 121zM821 1761l133 -188q41 -31 41 -68q0 -31 -24.5 -53t-65.5 -22q-31 0 -47 23.5t-12 49.5l-107 152l-143 -156q2 -29 -18.5 -49t-45.5 -20q-37 0 -61.5 24.5t-24.5 50.5q0 41 50 76l176 195q39 43 71 43q37 -1 78 -58z" />
<glyph unicode="&#xd5;" horiz-adv-x="1267" d="M737 1380q197 0 327 -155.5t130 -479.5q0 -334 -203 -558t-493 -224q-119 0 -208 51.5t-137.5 133t-71 171t-22.5 181.5q0 203 93.5 407.5t252 338.5t332.5 134zM715 1217q-104 0 -210 -105.5t-173.5 -268.5t-67.5 -319q0 -102 25.5 -188t89 -147.5t156.5 -61.5 q174 0 314 178t140 434q0 236 -71.5 357t-202.5 121zM821 1462q-82 0 -149 74q-39 47 -70 47q-53 0 -76 -63q-23 -49 -69 -50q-41 0 -60.5 21.5t-19.5 52.5q0 10 14.5 27.5t16.5 19.5q41 68 86 95.5t118 27.5q51 0 121 -61q61 -61 98 -62q29 0 44.5 22.5t13.5 49.5 q-2 31 19.5 45t52.5 14q33 0 55 -17t22 -38q0 -16 -10 -37q-25 -82 -72 -125t-135 -43z" />
<glyph unicode="&#xd6;" horiz-adv-x="1267" d="M737 1380q197 0 327 -155.5t130 -479.5q0 -334 -203 -558t-493 -224q-119 0 -208 51.5t-137.5 133t-71 171t-22.5 181.5q0 203 93.5 407.5t252 338.5t332.5 134zM715 1217q-104 0 -210 -105.5t-173.5 -268.5t-67.5 -319q0 -102 25.5 -188t89 -147.5t156.5 -61.5 q174 0 314 178t140 434q0 236 -71.5 357t-202.5 121zM537 1446q-39 0 -60.5 39t-21.5 80q0 119 106 118q98 0 98 -88q0 -78 -25 -113.5t-97 -35.5zM879 1450q-92 0 -93 111q0 51 24 86.5t73 35.5q41 0 74.5 -27.5t33.5 -78.5q1 -127 -112 -127z" />
<glyph unicode="&#xd7;" horiz-adv-x="1134" d="M559 569l223 226q8 39 35 64.5t64 25.5q39 0 73.5 -35t34.5 -86q0 -37 -25.5 -64.5t-52.5 -29.5l-225 -230l215 -217q88 -29 88 -96q0 -45 -35.5 -80t-81.5 -35q-70 0 -100 84l-213 219l-221 -221q2 -37 -30 -62.5t-77 -25.5q-47 0 -77.5 38t-30.5 85q0 41 37 71.5 t61 32.5l211 207l-221 222q-35 10 -62.5 36.5t-27.5 57.5q0 45 32.5 80.5t82.5 35.5q61 0 102 -81z" />
<glyph unicode="&#xd8;" horiz-adv-x="1312" d="M209 125l-84 -82q2 -27 -26.5 -51.5t-63.5 -24.5q-41 0 -65.5 26.5t-24.5 69.5q0 35 19.5 65t43.5 30q18 0 31 -6l100 106q-39 117 -39 242q0 203 92.5 407.5t251 338.5t330.5 134q190 0 313 -137l95 90q4 25 26.5 44.5t48.5 19.5q37 0 69 -24.5t32 -67.5q0 -88 -92 -80 l-99 -109q66 -147 66 -371q0 -334 -203 -558t-491 -224q-211 0 -330 162zM313 434l639 658q-74 125 -196 125q-104 0 -210 -105.5t-173.5 -268.5t-67.5 -319q0 -43 8 -90zM1004 954l-650 -671q80 -156 219 -156q176 0 315.5 177t139.5 435q1 117 -24 215z" />
<glyph unicode="&#xd9;" horiz-adv-x="1236" d="M481 -35q-178 0 -261 92.5t-85 204.5v916q-27 51 3 92t91 41q96 0 97 -119v-946q14 -43 58 -74t105 -31q123 0 221.5 48.5t140.5 99.5t42 84v813q-18 14 -19 47q0 43 35 69.5t90 26.5q37 0 65 -22.5t28 -61.5q0 -29 -9 -41v-862q0 -35 -41 -104.5t-100 -112.5 q-195 -160 -461 -160zM500 1696l129 -150q20 -4 36.5 -23.5t16.5 -43.5q0 -37 -25.5 -56.5t-64.5 -19.5q-31 0 -49.5 20.5t-18.5 46.5l-133 150q-47 18 -47 70q0 80 88 79q31 0 48.5 -21t19.5 -52z" />
<glyph unicode="&#xda;" horiz-adv-x="1236" d="M481 -35q-178 0 -261 92.5t-85 204.5v916q-27 51 3 92t91 41q96 0 97 -119v-946q14 -43 58 -74t105 -31q123 0 221.5 48.5t140.5 99.5t42 84v813q-18 14 -19 47q0 43 35 69.5t90 26.5q37 0 65 -22.5t28 -61.5q0 -29 -9 -41v-862q0 -35 -41 -104.5t-100 -112.5 q-195 -160 -461 -160zM834 1634l-154 -157q-4 -27 -28.5 -47.5t-59.5 -20.5t-56.5 20.5t-21.5 53.5q0 23 14.5 44t34.5 23l156 160q-10 35 14.5 53.5t61.5 18.5q41 0 62.5 -22.5t21.5 -55.5q0 -56 -45 -70z" />
<glyph unicode="&#xdb;" horiz-adv-x="1236" d="M481 -35q-178 0 -261 92.5t-85 204.5v916q-27 51 3 92t91 41q96 0 97 -119v-946q14 -43 58 -74t105 -31q123 0 221.5 48.5t140.5 99.5t42 84v813q-18 14 -19 47q0 43 35 69.5t90 26.5q37 0 65 -22.5t28 -61.5q0 -29 -9 -41v-862q0 -35 -41 -104.5t-100 -112.5 q-195 -160 -461 -160zM700 1722l136 -188q41 -35 41 -67.5t-26 -54t-67 -21.5q-31 0 -46 22.5t-11 48.5l-106 152l-146 -156q2 -29 -17.5 -48t-45.5 -19q-37 0 -61.5 24.5t-24.5 50.5q0 39 51 74l174 195q39 43 72 43q40 -1 77 -56z" />
<glyph unicode="&#xdc;" horiz-adv-x="1236" d="M481 -35q-178 0 -261 92.5t-85 204.5v916q-27 51 3 92t91 41q96 0 97 -119v-946q14 -43 58 -74t105 -31q123 0 221.5 48.5t140.5 99.5t42 84v813q-18 14 -19 47q0 43 35 69.5t90 26.5q37 0 65 -22.5t28 -61.5q0 -29 -9 -41v-862q0 -35 -41 -104.5t-100 -112.5 q-195 -160 -461 -160zM430 1415q-39 0 -60.5 39t-21.5 80q0 119 107 119q98 0 98 -88q0 -78 -25.5 -114t-97.5 -36zM772 1419q-92 0 -92 111q0 51 23.5 87t72.5 36q41 0 75 -28t34 -79q0 -127 -113 -127z" />
<glyph unicode="&#xdd;" horiz-adv-x="1214" d="M510 170v471q-57 104 -221 260t-226 244q-61 25 -61 94q0 43 40 72.5t85 31.5q41 0 68.5 -26.5t25.5 -63.5q41 -72 192.5 -223t196.5 -223h4q49 68 177.5 190.5t183.5 192.5q35 45 47 67q31 86 108 86q43 0 71 -25.5t28 -64.5q0 -37 -58 -110q-16 -23 -51 -61t-37 -40 q-25 -29 -175 -171t-201 -232v-492q23 -29 22 -55q0 -45 -33.5 -73.5t-101.5 -28.5q-57 0 -82 20.5t-25 80t23 79.5zM834 1620l-154 -158q-2 -27 -27.5 -48t-60.5 -21q-74 0 -78 73q2 25 16.5 44.5t32.5 23.5l158 162q-10 35 13.5 52t60.5 17q41 0 63.5 -21.5t22.5 -53.5 q0 -54 -47 -70z" />
<glyph unicode="&#xde;" horiz-adv-x="1122" d="M330 1202v-196q229 117 481 116q133 0 207 -72.5t74 -189.5q0 -98 -79 -190t-198 -156.5t-248 -105.5t-237 -50v-223q27 -43 26 -72q0 -74 -133 -73q-39 0 -79 21.5t-40 49.5q0 31 29 76v1057q-16 57 -16 63q0 33 40 58.5t95 25.5q41 0 73.5 -23.5t32.5 -49.5 q1 -37 -28 -66zM330 819v-293q115 10 243.5 56.5t221 118t92.5 143.5q0 39 -31 71.5t-88 32.5q-100 0 -229 -40t-209 -89z" />
<glyph unicode="&#xdf;" horiz-adv-x="1236" d="M219 682l-88 -18q-33 -16 -47 -17q-70 0 -70 94q0 33 21.5 61.5t48.5 28.5q25 0 41 -8l94 19v170q0 158 118 264t294 106q147 0 249.5 -69.5t102.5 -194.5q0 -123 -102 -221q-86 -82 -86 -131q0 -55 161 -150q225 -133 226 -301q0 -180 -116 -265t-300 -85 q-123 0 -204 58.5t-81 132.5q0 119 105 118q31 0 51 -17t20 -40q0 -16 -12 -33q45 -59 127 -59q106 0 161.5 48t55.5 134q0 96 -207 219q-180 106 -180 224q0 98 94 184q49 47 72 83t23 87q0 119 -170 119q-100 0 -155.5 -65.5t-55.5 -147.5v-887q18 -29 18 -53 q0 -80 -123 -80q-96 0 -96 76q0 8 5 24t5 23v569z" />
<glyph unicode="&#xe0;" horiz-adv-x="999" d="M682 590v104q0 80 -74 80q-147 0 -282 -88q4 -16 -20.5 -36.5t-65.5 -20.5q-35 0 -60.5 31.5t-25.5 64.5q0 31 30.5 60.5t61.5 23.5q178 113 434 113q80 0 133 -49.5t53 -135.5v-626q16 -12 17 -50q0 -74 -135 -73q-86 0 -86 65q0 16 16 49v93h-4q-211 -231 -457 -232 q-82 0 -135 44t-53 120q0 150 176 289t477 174zM678 399v64q-190 -23 -325.5 -117t-135.5 -172q0 -47 68 -47q111 0 252 100t141 172zM471 1307l129 -150q20 -4 36.5 -22.5t16.5 -42.5q0 -37 -25.5 -57.5t-64.5 -20.5q-31 0 -50 21.5t-17 45.5l-136 152q-47 20 -47 70 q0 80 88 79q33 0 50.5 -22t19.5 -53z" />
<glyph unicode="&#xe1;" horiz-adv-x="999" d="M682 590v104q0 80 -74 80q-147 0 -282 -88q4 -16 -20.5 -36.5t-65.5 -20.5q-35 0 -60.5 31.5t-25.5 64.5q0 31 30.5 60.5t61.5 23.5q178 113 434 113q80 0 133 -49.5t53 -135.5v-626q16 -12 17 -50q0 -74 -135 -73q-86 0 -86 65q0 16 16 49v93h-4q-211 -231 -457 -232 q-82 0 -135 44t-53 120q0 150 176 289t477 174zM678 399v64q-190 -23 -325.5 -117t-135.5 -172q0 -47 68 -47q111 0 252 100t141 172zM754 1239l-152 -156q-4 -27 -28.5 -48t-59.5 -21t-56.5 20.5t-21.5 52.5q0 25 14.5 44.5t32.5 23.5l158 160q-10 35 14.5 53t61.5 18 q39 0 61.5 -22.5t22.5 -54.5q0 -56 -47 -70z" />
<glyph unicode="&#xe2;" horiz-adv-x="999" d="M682 590v104q0 80 -74 80q-147 0 -282 -88q4 -16 -20.5 -36.5t-65.5 -20.5q-35 0 -60.5 31.5t-25.5 64.5q0 31 30.5 60.5t61.5 23.5q178 113 434 113q80 0 133 -49.5t53 -135.5v-626q16 -12 17 -50q0 -74 -135 -73q-86 0 -86 65q0 16 16 49v93h-4q-211 -231 -457 -232 q-82 0 -135 44t-53 120q0 150 176 289t477 174zM678 399v64q-190 -23 -325.5 -117t-135.5 -172q0 -47 68 -47q111 0 252 100t141 172zM616 1313l134 -189q41 -35 41 -67q0 -31 -25 -53.5t-66 -22.5q-31 0 -47 22.5t-12 49.5l-106 151l-146 -155q2 -29 -16.5 -48.5 t-44.5 -19.5q-37 0 -61.5 25.5t-24.5 50.5q0 39 49 73l176 195q39 43 72 43q34 0 77 -55z" />
<glyph unicode="&#xe3;" horiz-adv-x="999" d="M682 590v104q0 80 -74 80q-147 0 -282 -88q4 -16 -20.5 -36.5t-65.5 -20.5q-35 0 -60.5 31.5t-25.5 64.5q0 31 30.5 60.5t61.5 23.5q178 113 434 113q80 0 133 -49.5t53 -135.5v-626q16 -12 17 -50q0 -74 -135 -73q-86 0 -86 65q0 16 16 49v93h-4q-211 -231 -457 -232 q-82 0 -135 44t-53 120q0 150 176 289t477 174zM678 399v64q-190 -23 -325.5 -117t-135.5 -172q0 -47 68 -47q111 0 252 100t141 172zM633 1024q-82 0 -150 74q-39 47 -69 47q-53 0 -76 -64q-23 -47 -70 -47q-80 0 -80 72q0 8 5.5 15t14.5 17.5t11 14.5q39 66 85 94.5 t120 28.5q51 0 121 -62q61 -61 100 -61q29 0 43 22.5t12 49.5q-2 31 19.5 45t52.5 14q33 0 55.5 -17.5t22.5 -37.5q0 -16 -10 -37q-25 -82 -72 -125t-135 -43z" />
<glyph unicode="&#xe4;" horiz-adv-x="999" d="M682 590v104q0 80 -74 80q-147 0 -282 -88q4 -16 -20.5 -36.5t-65.5 -20.5q-35 0 -60.5 31.5t-25.5 64.5q0 31 30.5 60.5t61.5 23.5q178 113 434 113q80 0 133 -49.5t53 -135.5v-626q16 -12 17 -50q0 -74 -135 -73q-86 0 -86 65q0 16 16 49v93h-4q-211 -231 -457 -232 q-82 0 -135 44t-53 120q0 150 176 289t477 174zM678 399v64q-190 -23 -325.5 -117t-135.5 -172q0 -47 68 -47q111 0 252 100t141 172zM356 1024q-39 0 -60.5 39t-21.5 80q0 119 107 119q98 0 98 -88q0 -78 -25.5 -114t-97.5 -36zM696 1030q-92 0 -92 111q0 51 23.5 87 t72.5 36q41 0 75 -28t34 -79q0 -127 -113 -127z" />
<glyph unicode="&#xe5;" horiz-adv-x="999" d="M682 590v104q0 80 -74 80q-147 0 -282 -88q4 -16 -20.5 -36.5t-65.5 -20.5q-35 0 -60.5 31.5t-25.5 64.5q0 31 30.5 60.5t61.5 23.5q180 113 434 113q80 0 133 -49.5t53 -135.5v-626q16 -12 17 -50q0 -74 -135 -73q-86 0 -86 65q0 16 16 49v93h-4q-211 -231 -457 -232 q-82 0 -135 44t-53 120q0 150 176 289t477 174zM678 399v64q-190 -23 -325.5 -117t-135.5 -172q0 -47 70 -47q111 0 251 100t140 172zM502 975q-61 0 -101.5 52t-40.5 132q0 72 70 125t125 53q68 0 114 -47t46 -133q0 -84 -69.5 -133t-143.5 -49zM518 1079q31 0 59.5 21.5 t28.5 54.5q0 78 -49 78q-33 0 -60.5 -22.5t-27.5 -59.5q0 -72 49 -72z" />
<glyph unicode="&#xe6;" horiz-adv-x="1605" d="M29 133q0 203 237 316q129 70 312 90l139 16v115q0 39 -20.5 63.5t-57.5 24.5q-174 0 -320 -107q0 -14 -26.5 -31.5t-65.5 -17.5q-35 0 -57.5 31t-22.5 59q0 35 26 63.5t58 26.5q205 131 447 131q92 0 153.5 -49t61.5 -119v-51q76 100 173 156.5t185 56.5 q84 0 148.5 -31.5t96.5 -78.5t47.5 -88t15.5 -70q0 -43 -34 -87t-93 -50l-525 -62q-31 -84 -30 -166q0 -66 46 -106.5t126 -40.5q96 0 181 44t140 114q-10 37 12.5 59.5t71.5 22.5t75.5 -22.5t24.5 -51.5q0 -12 -19 -46t-62 -82t-102.5 -91t-151 -74t-193.5 -31 q-125 0 -204 58.5t-103 150.5q-68 -88 -201 -151.5t-254 -63.5q-113 0 -174 44t-61 126zM985 582l401 51q2 39 -34.5 81t-104.5 42q-135 0 -262 -174zM717 420l-117 -14q-150 -16 -256 -70q-123 -70 -123 -166q0 -49 82 -49q94 0 253 99.5t161 199.5z" />
<glyph unicode="&#xe7;" horiz-adv-x="950" d="M485 -33l-47 -78q61 2 102.5 -40t41.5 -119q0 -96 -68 -161t-182 -65q-53 0 -90 29q-14 -10 -33 -10q-16 0 -30.5 22.5t-14.5 48.5q0 31 21.5 56.5t43.5 25.5q12 0 24.5 -9t12.5 -19q33 -18 70 -19q57 0 92 27t35 68q0 57 -53 57q-12 0 -33 -10q-10 -14 -49 -15 q-20 0 -34.5 15.5t-14.5 38.5q0 39 26 61l62 92q-137 6 -219 96.5t-82 231.5q0 162 51 262t159 211q49 53 140.5 99t169.5 46q119 0 201.5 -47t82.5 -112q0 -100 -116 -101q-20 0 -34.5 9.5t-19.5 16.5l-14 25q-20 51 -96 52q-98 0 -191 -103q-145 -141 -145 -325 q0 -96 48 -148.5t140 -52.5q61 0 131 45q84 49 119 123q12 49 29.5 71.5t60.5 22.5q51 0 76 -27.5t25 -56.5q0 -27 -50.5 -103.5t-125.5 -134.5q-109 -82 -222 -96z" />
<glyph unicode="&#xe8;" horiz-adv-x="958" d="M598 909q82 0 143.5 -27.5t93 -69.5t47 -81t15.5 -74q0 -53 -33 -91t-156.5 -84t-349.5 -85l-94 -16q-14 -45 -14 -111q0 -143 141 -143q96 0 180 44t117 93q-4 37 24.5 63.5t78.5 26.5q92 0 92 -90q0 -25 -35 -71t-95.5 -98t-164 -90t-219.5 -38q-141 0 -224.5 68.5 t-83.5 218.5q0 276 164 465.5t373 189.5zM590 754q-86 0 -164 -63.5t-125 -164.5q172 31 267.5 54.5t121 38t25.5 30.5q0 43 -32 74t-93 31zM467 1296l129 -149q20 -4 35.5 -22.5t15.5 -43.5q0 -37 -25.5 -56t-62.5 -19q-33 0 -51.5 21.5t-15.5 45.5l-136 150q-47 20 -47 69 q0 80 88 80q33 0 50.5 -22.5t19.5 -53.5z" />
<glyph unicode="&#xe9;" horiz-adv-x="958" d="M598 909q82 0 143.5 -27.5t93 -69.5t47 -81t15.5 -74q0 -53 -33 -91t-156.5 -84t-349.5 -85l-94 -16q-14 -45 -14 -111q0 -143 141 -143q96 0 180 44t117 93q-4 37 24.5 63.5t78.5 26.5q92 0 92 -90q0 -25 -35 -71t-95.5 -98t-164 -90t-219.5 -38q-141 0 -224.5 68.5 t-83.5 218.5q0 276 164 465.5t373 189.5zM590 754q-86 0 -164 -63.5t-125 -164.5q172 31 267.5 54.5t121 38t25.5 30.5q0 43 -32 74t-93 31zM766 1239l-152 -156q-4 -29 -28.5 -49t-59 -20t-56 20.5t-21.5 52.5q0 25 14 44.5t33 23.5l157 160q-10 35 14.5 53t61.5 18 q39 0 61.5 -22.5t22.5 -54.5q0 -56 -47 -70z" />
<glyph unicode="&#xea;" horiz-adv-x="958" d="M598 909q82 0 143.5 -27.5t93 -69.5t47 -81t15.5 -74q0 -53 -33 -91t-156.5 -84t-349.5 -85l-94 -16q-14 -45 -14 -111q0 -143 141 -143q96 0 180 44t117 93q-4 37 24.5 63.5t78.5 26.5q92 0 92 -90q0 -25 -35 -71t-95.5 -98t-164 -90t-219.5 -38q-141 0 -224.5 68.5 t-83.5 218.5q0 276 164 465.5t373 189.5zM590 754q-86 0 -164 -63.5t-125 -164.5q172 31 267.5 54.5t121 38t25.5 30.5q0 43 -32 74t-93 31zM641 1311l135 -189q41 -37 41 -67.5t-25.5 -53t-66.5 -22.5q-31 0 -46 23.5t-11 50.5l-107 151l-145 -157q2 -29 -17.5 -48.5 t-46.5 -19.5q-35 0 -59.5 24.5t-24.5 51.5q0 39 49 73l175 197q39 43 71 43q43 0 78 -57z" />
<glyph unicode="&#xeb;" horiz-adv-x="958" d="M598 909q82 0 143.5 -27.5t93 -69.5t47 -81t15.5 -74q0 -53 -33 -91t-156.5 -84t-349.5 -85l-94 -16q-14 -45 -14 -111q0 -143 141 -143q96 0 180 44t117 93q-4 37 24.5 63.5t78.5 26.5q92 0 92 -90q0 -25 -35 -71t-95.5 -98t-164 -90t-219.5 -38q-141 0 -224.5 68.5 t-83.5 218.5q0 276 164 465.5t373 189.5zM590 754q-86 0 -164 -63.5t-125 -164.5q172 31 267.5 54.5t121 38t25.5 30.5q0 43 -32 74t-93 31zM365 1022q-39 0 -60.5 39t-21.5 80q0 119 106 119q98 0 98 -89q0 -78 -25 -113.5t-97 -35.5zM707 1026q-92 0 -93 111q0 51 24 87 t73 36q41 0 74.5 -28t33.5 -79q1 -127 -112 -127z" />
<glyph unicode="&#xec;" horiz-adv-x="440" d="M338 801q0 -16 -4 -29.5t-11.5 -25t-7.5 -13.5v-586q27 -20 27 -57q0 -47 -47 -73.5t-102 -26.5q-41 0 -67 26.5t-26 69.5q0 39 25 70v569q-18 18 -19 53q0 27 3.5 43.5t14.5 37t38.5 29.5t73.5 9q35 0 68.5 -31.5t33.5 -64.5zM156 1300l129 -149q20 -4 36.5 -22.5 t16.5 -43.5q0 -37 -26.5 -56t-63.5 -19q-31 0 -49.5 20.5t-18.5 46.5l-133 150q-47 18 -47 69q0 80 88 80q31 0 48.5 -22.5t19.5 -53.5z" />
<glyph unicode="&#xed;" horiz-adv-x="440" d="M338 801q0 -16 -4 -29.5t-11.5 -25t-7.5 -13.5v-586q27 -20 27 -57q0 -47 -47 -73.5t-102 -26.5q-41 0 -67 26.5t-26 69.5q0 39 25 70v569q-18 18 -19 53q0 27 3.5 43.5t14.5 37t38.5 29.5t73.5 9q35 0 68.5 -31.5t33.5 -64.5zM449 1239l-152 -156q-4 -27 -28.5 -48 t-59.5 -21t-56.5 20.5t-21.5 52.5q0 25 14.5 44.5t34.5 23.5l156 160q-10 35 14.5 53t61.5 18q39 0 61.5 -22.5t22.5 -54.5q0 -56 -47 -70z" />
<glyph unicode="&#xee;" horiz-adv-x="440" d="M338 801q0 -16 -4 -29.5t-11.5 -25t-7.5 -13.5v-586q27 -20 27 -57q0 -47 -47 -73.5t-102 -26.5q-41 0 -67 26.5t-26 69.5q0 39 25 70v569q-18 18 -19 53q0 27 3.5 43.5t14.5 37t38.5 29.5t73.5 9q35 0 68.5 -31.5t33.5 -64.5zM319 1300l134 -188q41 -35 41 -68 q0 -31 -25 -53t-66 -22q-33 0 -48 23.5t-11 49.5l-106 152l-144 -156q2 -29 -17.5 -49t-45.5 -20q-35 0 -60.5 25.5t-25.5 49.5q0 37 49 74l176 195q39 43 72 43q34 -1 77 -56z" />
<glyph unicode="&#xef;" horiz-adv-x="440" d="M338 801q0 -16 -4 -29.5t-11.5 -25t-7.5 -13.5v-586q27 -20 27 -57q0 -47 -47 -73.5t-102 -26.5q-41 0 -67 26.5t-26 69.5q0 39 25 70v569q-18 18 -19 53q0 27 3.5 43.5t14.5 37t38.5 29.5t73.5 9q35 0 68.5 -31.5t33.5 -64.5zM35 1024q-39 0 -60.5 39t-21.5 80 q0 119 106 119q98 0 99 -88q0 -78 -25.5 -114t-97.5 -36zM377 1030q-92 0 -92 111q0 51 23.5 87t72.5 36q41 0 74.5 -28t33.5 -79q1 -127 -112 -127z" />
<glyph unicode="&#xf0;" horiz-adv-x="1028" d="M637 1040l-121 -59q-16 -41 -84 -41q-27 0 -44 19.5t-17 46.5q0 39 24.5 61.5t59.5 17.5l73 37q-70 49 -139 49q-4 0 -20.5 -5t-32.5 -5q-29 0 -50.5 21.5t-21.5 58.5q0 45 29 75t63 30q49 0 64 -27q127 -10 258 -105l102 54q23 37 70 37q74 0 74 -60q0 -78 -74 -80 l-80 -39q193 -207 193 -518q0 -291 -174.5 -468t-407.5 -177q-90 0 -156.5 33t-99.5 85t-47.5 104.5t-14.5 105.5q0 240 149.5 423t375.5 183q55 0 105 -20.5t73 -49.5q-12 57 -52 118.5t-77 94.5zM604 743q-145 0 -246.5 -131t-101.5 -305q0 -82 36 -133t109 -51 q145 0 256 123t111 278q0 219 -164 219z" />
<glyph unicode="&#xf1;" horiz-adv-x="970" d="M322 543v-430q14 -20 14 -50q0 -37 -39 -55t-88 -18q-43 0 -73 17.5t-30 52t25 57.5v319q-31 18 -31 68q0 41 31 119v163q-16 29 -16 62q0 31 40 57.5t87 26.5q100 0 100 -72q0 -29 -20 -63v-80q258 215 374 215q55 0 104.5 -43t49.5 -92v-668q12 -37 12 -53 q0 -86 -117 -86q-104 0 -104 78q0 25 18 53v573q0 10 -18 24.5t-29 14.5q-65 0 -290 -190zM600 1024q-88 0 -149 74q-41 49 -70 49q-53 0 -76 -64q-23 -49 -69 -49q-41 0 -60.5 21.5t-19.5 52.5q0 10 14 27.5t16 19.5q41 68 86 95.5t119 27.5q55 0 119 -64q66 -61 100 -61 q29 0 43.5 22.5t12.5 49.5q-2 31 19.5 45t51.5 14q33 0 55.5 -17.5t22.5 -37.5q0 -4 -8 -37q-27 -82 -74 -125t-133 -43z" />
<glyph unicode="&#xf2;" horiz-adv-x="1007" d="M629 918q90 0 154.5 -39t96 -101.5t46 -123t14.5 -124.5q0 -113 -52 -216t-106 -156q-117 -115 -209 -155t-229 -40q-102 0 -192.5 84t-90.5 242q0 268 166 448.5t402 180.5zM590 758q-127 0 -231.5 -133t-104.5 -306q0 -88 39 -142t96 -54q127 0 236 106 q123 119 123 291q0 238 -158 238zM467 1307l129 -150q20 -4 35.5 -22.5t15.5 -42.5q0 -37 -25.5 -57.5t-62.5 -20.5q-33 0 -51.5 21.5t-15.5 45.5l-134 152q-47 14 -47 70q0 80 86 79q33 0 50.5 -22t19.5 -53z" />
<glyph unicode="&#xf3;" horiz-adv-x="1007" d="M629 918q90 0 154.5 -39t96 -101.5t46 -123t14.5 -124.5q0 -113 -52 -216t-106 -156q-117 -115 -209 -155t-229 -40q-102 0 -192.5 84t-90.5 242q0 268 166 448.5t402 180.5zM590 758q-127 0 -231.5 -133t-104.5 -306q0 -88 39 -142t96 -54q127 0 236 106 q123 119 123 291q0 238 -158 238zM780 1239l-153 -156q-2 -29 -27 -49t-59.5 -20t-56 20.5t-21.5 52.5q0 25 14.5 44.5t32.5 23.5l158 160q-10 35 14.5 53t60.5 18q39 0 61.5 -22.5t22.5 -54.5q0 -54 -47 -70z" />
<glyph unicode="&#xf4;" horiz-adv-x="1007" d="M629 918q90 0 154.5 -39t96 -101.5t46 -123t14.5 -124.5q0 -113 -52 -216t-106 -156q-117 -115 -209 -155t-229 -40q-102 0 -192.5 84t-90.5 242q0 268 166 448.5t402 180.5zM590 758q-127 0 -231.5 -133t-104.5 -306q0 -88 39 -142t96 -54q127 0 236 106 q123 119 123 291q0 238 -158 238zM666 1311l133 -189q41 -31 41 -67q0 -31 -24.5 -53.5t-65.5 -22.5q-31 0 -47.5 23.5t-12.5 50.5l-106 151l-144 -155q2 -29 -17.5 -49.5t-45.5 -20.5q-37 0 -61.5 24.5t-24.5 51.5q0 39 49 75l176 195q39 43 72 43q37 0 78 -57z" />
<glyph unicode="&#xf5;" horiz-adv-x="1007" d="M629 918q90 0 154.5 -39t96 -101.5t46 -123t14.5 -124.5q0 -113 -52 -216t-106 -156q-117 -115 -209 -155t-229 -40q-102 0 -192.5 84t-90.5 242q0 268 166 448.5t402 180.5zM590 758q-127 0 -231.5 -133t-104.5 -306q0 -88 39 -142t96 -54q127 0 236 106 q123 119 123 291q0 238 -158 238zM674 1012q-90 0 -148 75q-43 47 -71 48q-51 0 -76 -64q-23 -49 -70 -49q-41 0 -60.5 21.5t-19.5 52.5q0 10 14.5 27.5t16.5 19.5q41 68 86 95.5t119 27.5q53 0 121 -64q61 -61 100 -61q29 0 43 22.5t12 48.5q-2 31 19.5 45.5t52.5 14.5 q33 0 55.5 -17.5t22.5 -37.5q0 -16 -10 -37q-25 -82 -72 -125t-135 -43z" />
<glyph unicode="&#xf6;" horiz-adv-x="1007" d="M629 918q90 0 154.5 -39t96 -101.5t46 -123t14.5 -124.5q0 -113 -52 -216t-106 -156q-117 -115 -209 -155t-229 -40q-102 0 -192.5 84t-90.5 242q0 268 166 448.5t402 180.5zM590 758q-127 0 -231.5 -133t-104.5 -306q0 -88 39 -142t96 -54q127 0 236 106 q123 119 123 291q0 238 -158 238zM379 1022q-39 0 -60.5 39t-21.5 80q0 119 106 119q98 0 99 -89q0 -78 -25.5 -113.5t-97.5 -35.5zM721 1026q-92 0 -92 111q0 51 23.5 87t72.5 36q41 0 75 -28t34 -79q0 -127 -113 -127z" />
<glyph unicode="&#xf7;" horiz-adv-x="1134" d="M565 657q-57 0 -88 30t-31 79t33 82t86 33q37 0 68 -36t31 -89q0 -39 -25 -69t-74 -30zM868 369h-624q-43 -14 -66 -15q-76 0 -76 88q0 117 84 117q33 0 58 -10h624q6 2 19.5 7t24 8t18.5 3q80 0 80 -106q0 -104 -80 -105q-37 1 -62 13zM559 37q-51 0 -83 28.5t-32 73.5 q0 49 34 85t100 36q37 0 59 -27.5t22 -66.5q0 -55 -31.5 -92t-68.5 -37z" />
<glyph unicode="&#xf8;" horiz-adv-x="1036" d="M840 850l51 51q16 45 63 45q37 0 62.5 -18.5t25.5 -57.5q0 -41 -18 -54t-61 -17l-48 -49q45 -109 46 -220q0 -115 -52.5 -217t-105.5 -155q-119 -115 -211 -155t-230 -40q-80 0 -155 55l-57 -57q-10 -49 -80 -49q-31 0 -53.5 19.5t-22.5 48.5q0 78 82 73l47 53 q-43 80 -43 183q0 268 166 448.5t399 180.5q117 0 195 -68zM281 260l434 449q-39 49 -105 49q-127 0 -234.5 -132t-107.5 -294q1 -45 13 -72zM760 600l-428 -442q35 -35 76 -35q127 0 239 106q57 57 91 132t34 139q0 57 -12 100z" />
<glyph unicode="&#xf9;" horiz-adv-x="968" d="M315 768v-553q0 -20 20.5 -41.5t45.5 -21.5q51 0 133 54t141 128v442q-12 29 -12 45q0 39 20.5 55.5t71.5 16.5q61 0 91 -21.5t20 -93.5v-659q18 -29 18 -53q0 -76 -131 -76q-92 0 -92 63q0 8 3 16.5t7 17.5t6 13v47q-170 -182 -352 -182q-66 2 -123 56.5t-57 123.5v619 q0 6 -6 22.5t-6 26.5q0 86 120 86q37 0 68 -20.5t31 -61.5q-1 -24 -17 -49zM391 1305l129 -150q20 -4 36.5 -23.5t16.5 -44.5q0 -37 -25.5 -56t-64.5 -19q-31 0 -49 20.5t-18 46.5l-133 152q-47 16 -47 69q0 80 88 80q31 0 48 -22t19 -53z" />
<glyph unicode="&#xfa;" horiz-adv-x="968" d="M315 768v-553q0 -20 20.5 -41.5t45.5 -21.5q51 0 133 54t141 128v442q-12 29 -12 45q0 39 20.5 55.5t71.5 16.5q61 0 91 -21.5t20 -93.5v-659q18 -29 18 -53q0 -76 -131 -76q-92 0 -92 63q0 8 3 16.5t7 17.5t6 13v47q-170 -182 -352 -182q-66 2 -123 56.5t-57 123.5v619 q0 6 -6 22.5t-6 26.5q0 86 120 86q37 0 68 -20.5t31 -61.5q-1 -24 -17 -49zM725 1229l-152 -158q-4 -27 -28.5 -48.5t-59 -21.5t-56 20.5t-21.5 53.5q0 25 14 44.5t33 23.5l157 162q-10 35 14.5 53t61.5 18q39 0 61.5 -22.5t22.5 -55.5q0 -55 -47 -69z" />
<glyph unicode="&#xfb;" horiz-adv-x="968" d="M315 768v-553q0 -20 20.5 -41.5t45.5 -21.5q51 0 133 54t141 128v442q-12 29 -12 45q0 39 20.5 55.5t71.5 16.5q61 0 91 -21.5t20 -93.5v-659q18 -29 18 -53q0 -76 -131 -76q-92 0 -92 63q0 8 3 16.5t7 17.5t6 13v47q-170 -182 -352 -182q-66 2 -123 56.5t-57 123.5v619 q0 6 -6 22.5t-6 26.5q0 86 120 86q37 0 68 -20.5t31 -61.5q-1 -24 -17 -49zM586 1311l135 -189q41 -37 41 -67.5t-25.5 -54t-66.5 -23.5q-31 0 -46.5 23.5t-11.5 50.5l-106 153l-146 -157q2 -29 -17 -49.5t-44 -20.5q-37 0 -61.5 25.5t-24.5 52.5q0 39 49 73l176 197 q39 43 70 43q43 0 78 -57z" />
<glyph unicode="&#xfc;" horiz-adv-x="968" d="M315 768v-553q0 -20 20.5 -41.5t45.5 -21.5q51 0 133 54t141 128v442q-12 29 -12 45q0 39 20.5 55.5t71.5 16.5q61 0 91 -21.5t20 -93.5v-659q18 -29 18 -53q0 -76 -131 -76q-92 0 -92 63q0 8 3 16.5t7 17.5t6 13v47q-170 -182 -352 -182q-66 2 -123 56.5t-57 123.5v619 q0 6 -6 22.5t-6 26.5q0 86 120 86q37 0 68 -20.5t31 -61.5q-1 -24 -17 -49zM301 1024q-39 0 -60.5 39t-21.5 80q0 119 107 119q98 0 98 -88q0 -78 -25.5 -114t-97.5 -36zM643 1030q-92 0 -92 111q0 51 23.5 87t72.5 36q41 0 75 -28t34 -79q0 -127 -113 -127z" />
<glyph unicode="&#xfd;" horiz-adv-x="964" d="M449 57l-383 664q-43 31 -43 80q0 39 37.5 65.5t74.5 26.5q55 0 81 -31t22 -76l299 -524l211 543q2 39 24.5 66.5t69.5 27.5q51 0 83.5 -23.5t32.5 -62.5q0 -45 -47 -72l-362 -884q-63 -156 -141 -214.5t-181 -58.5q-86 0 -152.5 45t-90.5 129q-4 12 -19.5 27.5 t-15.5 44.5q0 43 25.5 68.5t70.5 25.5q106 0 107 -78q0 -6 -11 -43q2 -25 27 -43t59 -18q57 0 105.5 69.5t116.5 245.5zM715 1223l-154 -158q-2 -27 -27.5 -48.5t-60.5 -21.5q-74 0 -78 74q2 25 16.5 44.5t32.5 23.5l158 159q-10 35 13.5 53.5t60.5 18.5q41 0 63.5 -22.5 t22.5 -55.5q0 -55 -47 -67z" />
<glyph unicode="&#xfe;" horiz-adv-x="1019" d="M125 -481v1648q-2 6 -9 40t-7 44q0 43 32.5 64.5t67.5 21.5q66 0 97.5 -19.5t31.5 -45.5q0 -6 -11.5 -45t-11.5 -49v-523h2q94 127 188.5 184.5t223.5 57.5q106 0 173 -73.5t67 -198.5q0 -147 -53.5 -274.5t-135.5 -207.5t-174 -124t-176 -44q-70 0 -115 43v-503 q18 -23 19 -58q0 -47 -32 -68.5t-103 -21.5q-92 0 -93 70q1 41 19 82zM315 406v-205q35 -68 105 -68q121 0 238.5 142.5t117.5 322.5q0 59 -25.5 97t-76.5 38q-88 0 -207 -121q-89 -91 -152 -206z" />
<glyph unicode="&#xff;" horiz-adv-x="964" d="M449 57l-383 664q-43 31 -43 80q0 39 37.5 65.5t74.5 26.5q55 0 81 -31t22 -76l299 -524l211 543q2 39 24.5 66.5t69.5 27.5q51 0 83.5 -23.5t32.5 -62.5q0 -45 -47 -72l-362 -884q-63 -156 -141 -214.5t-181 -58.5q-86 0 -152.5 45t-90.5 129q-4 12 -19.5 27.5 t-15.5 44.5q0 43 25.5 68.5t70.5 25.5q106 0 107 -78q0 -6 -11 -43q2 -25 27 -43t59 -18q57 0 105.5 69.5t116.5 245.5zM305 1012q-39 0 -60.5 39t-21.5 79q0 119 107 119q98 0 98 -88q0 -78 -25.5 -113.5t-97.5 -35.5zM645 1018q-92 0 -92 110q0 51 23.5 87t72.5 36 q41 0 75 -27.5t34 -78.5q0 -127 -113 -127z" />
<glyph unicode="&#x152;" horiz-adv-x="2000" d="M1225 1081v-329l465 49q8 0 27.5 13t29.5 13q88 0 88 -88q0 -43 -19.5 -65.5t-91.5 -28.5l-499 -55v-424l618 72q47 6 81 -17.5t34 -77.5q0 -45 -27.5 -68.5t-64.5 -23.5q-23 0 -56 17l-579 -68q-4 -2 -20.5 -12.5t-42 -17.5t-62.5 -7q-43 0 -71.5 23.5t-28.5 60.5 q0 72 22 80l2 113q-109 -139 -240 -209t-331 -70q-180 0 -290 154.5t-110 400.5q0 178 63.5 341t167 275.5t233.5 179t261 66.5q152 0 246 -104l2 4q2 33 30 54.5t68 21.5q59 0 89 -37t14 -74l584 80q43 6 73.5 -15.5t32.5 -66.5q0 -39 -25.5 -69.5t-64.5 -30.5q-6 0 -36 7 t-42 5zM526 125q164 0 303.5 113.5t198.5 287.5v502q-27 82 -102.5 135.5t-165.5 53.5q-197 0 -346.5 -203t-149.5 -486q0 -190 66.5 -296.5t195.5 -106.5z" />
<glyph unicode="&#x153;" horiz-adv-x="1603" d="M621 907q115 0 187.5 -72.5t76.5 -170.5q55 96 161.5 169.5t196.5 73.5q84 0 146.5 -29.5t93 -72.5t45 -80t14.5 -66q0 -41 -34.5 -85t-90.5 -58l-499 -113q-20 -76 -21 -133q0 -59 36 -101t105 -42q86 0 175.5 47t148.5 121q-10 33 10.5 56.5t59.5 23.5q57 0 82.5 -26.5 t25.5 -53.5t-39 -76q-193 -250 -485 -250q-98 0 -175 52.5t-91 130.5q-57 -88 -167 -137.5t-223 -49.5q-147 0 -223 85t-76 231q0 260 158 443t402 183zM602 748q-145 0 -246.5 -128t-101.5 -319q0 -176 145 -176q147 0 245.5 134t98.5 278q0 211 -141 211zM979 553l397 90 q-2 47 -37.5 78t-93.5 31q-63 0 -139 -58.5t-127 -140.5z" />
<glyph unicode="&#x178;" horiz-adv-x="1214" d="M510 170v471q-57 104 -221 260t-226 244q-61 25 -61 94q0 43 40 72.5t85 31.5q41 0 68.5 -26.5t25.5 -63.5q41 -72 192.5 -223t196.5 -223h4q49 68 177.5 190.5t183.5 192.5q35 45 47 67q31 86 108 86q43 0 71 -25.5t28 -64.5q0 -37 -58 -110q-16 -23 -51 -61t-37 -40 q-25 -29 -175 -171t-201 -232v-492q23 -29 22 -55q0 -45 -33.5 -73.5t-101.5 -28.5q-57 0 -82 20.5t-25 80t23 79.5zM436 1395q-39 0 -60.5 39t-21.5 79q0 119 107 119q98 0 98 -88q0 -78 -25.5 -113.5t-97.5 -35.5zM778 1399q-92 0 -92 110q0 51 23.5 87t72.5 36 q41 0 75 -27.5t34 -78.5q0 -127 -113 -127z" />
<glyph unicode="&#x2c6;" horiz-adv-x="708" d="M453 1298l133 -186q41 -35 41 -70q0 -31 -24.5 -52t-65.5 -21q-31 0 -47.5 22.5t-12.5 48.5l-106 152l-144 -156q2 -29 -16 -48t-45 -19q-37 0 -61.5 24.5t-24.5 50.5q0 39 49 74l174 195q39 43 72 43q43 -1 78 -58z" />
<glyph unicode="&#x2dc;" horiz-adv-x="708" d="M469 1024q-86 0 -147 74q-43 47 -72 47q-53 0 -76 -64q-23 -47 -70 -47q-41 0 -60 20.5t-19 51.5q0 10 14 27.5t16 19.5q41 68 86 95.5t119 27.5q51 0 121 -62q61 -61 98 -61q29 0 44.5 22.5t13.5 49.5q-2 31 19.5 45t51.5 14q33 0 55.5 -17.5t22.5 -37.5q0 -16 -10 -37 q-25 -82 -72 -125t-135 -43z" />
<glyph unicode="&#x2000;" horiz-adv-x="917" />
<glyph unicode="&#x2001;" horiz-adv-x="1835" />
<glyph unicode="&#x2002;" horiz-adv-x="917" />
<glyph unicode="&#x2003;" horiz-adv-x="1835" />
<glyph unicode="&#x2004;" horiz-adv-x="610" />
<glyph unicode="&#x2005;" horiz-adv-x="458" />
<glyph unicode="&#x2006;" horiz-adv-x="305" />
<glyph unicode="&#x2007;" horiz-adv-x="305" />
<glyph unicode="&#x2008;" horiz-adv-x="229" />
<glyph unicode="&#x2009;" horiz-adv-x="366" />
<glyph unicode="&#x200a;" horiz-adv-x="100" />
<glyph unicode="&#x2010;" horiz-adv-x="702" d="M475 471l-239 -22q-27 -35 -72 -35q-31 0 -55.5 32.5t-24.5 77.5q0 51 25.5 81t58.5 30q37 0 53 -21l244 21q29 25 57 24q41 0 67.5 -29.5t26.5 -78.5q0 -41 -26.5 -74t-59.5 -33q-43 0 -55 27z" />
<glyph unicode="&#x2011;" horiz-adv-x="702" d="M475 471l-239 -22q-27 -35 -72 -35q-31 0 -55.5 32.5t-24.5 77.5q0 51 25.5 81t58.5 30q37 0 53 -21l244 21q29 25 57 24q41 0 67.5 -29.5t26.5 -78.5q0 -41 -26.5 -74t-59.5 -33q-43 0 -55 27z" />
<glyph unicode="&#x2012;" horiz-adv-x="702" d="M475 471l-239 -22q-27 -35 -72 -35q-31 0 -55.5 32.5t-24.5 77.5q0 51 25.5 81t58.5 30q37 0 53 -21l244 21q29 25 57 24q41 0 67.5 -29.5t26.5 -78.5q0 -41 -26.5 -74t-59.5 -33q-43 0 -55 27z" />
<glyph unicode="&#x2013;" horiz-adv-x="1024" d="M219 659h572q29 25 57 25q41 2 67.5 -28.5t26.5 -80.5q0 -41 -26.5 -72.5t-59.5 -31.5q-43 0 -55 25h-568q-27 -33 -71 -33q-31 0 -55.5 31.5t-24.5 76.5q0 51 25.5 81t58.5 30q37 0 53 -23z" />
<glyph unicode="&#x2014;" horiz-adv-x="2048" d="M1825 496h-1592q-27 -33 -71 -33q-31 0 -55.5 31.5t-24.5 76.5q0 51 25.5 81t58.5 30q37 0 53 -23h1596q29 25 57 25q41 2 67.5 -28.5t26.5 -80.5q0 -41 -26.5 -72.5t-59.5 -31.5q-43 0 -55 25z" />
<glyph unicode="&#x2018;" horiz-adv-x="366" d="M174 918q-109 0 -108 165q0 127 62 215t128 88q55 0 55 -43q0 -51 -47 -55q-39 -4 -75.5 -51t-32.5 -113q31 37 69 37q82 0 82 -108q0 -51 -37 -93t-96 -42z" />
<glyph unicode="&#x2019;" horiz-adv-x="366" d="M211 1386q109 0 108 -165q0 -129 -62 -217.5t-128 -88.5q-55 0 -55 43q0 51 47 56q39 4 75.5 51t32.5 115q-33 -37 -69 -37q-82 0 -82 108q0 51 37 93t96 42z" />
<glyph unicode="&#x201a;" horiz-adv-x="366" d="M315 57q0 -127 -62.5 -215t-127.5 -88q-55 0 -55 43q0 51 47 56q39 4 75.5 51t32.5 114q-31 -37 -69 -36q-82 0 -82 108q0 51 35.5 93t95.5 42q110 0 110 -168z" />
<glyph unicode="&#x201c;" horiz-adv-x="706" d="M174 918q-109 0 -108 165q0 127 62 215t128 88q55 0 55 -43q0 -51 -47 -55q-39 -4 -75.5 -51t-32.5 -113q31 37 69 37q82 0 82 -108q0 -51 -37 -93t-96 -42zM514 918q-109 0 -108 165q0 127 62 215t128 88q55 0 55 -43q0 -51 -47 -55q-39 -4 -75.5 -51t-32.5 -113 q31 37 69 37q82 0 82 -108q0 -51 -37 -93t-96 -42z" />
<glyph unicode="&#x201d;" horiz-adv-x="706" d="M211 1386q109 0 108 -165q0 -129 -62 -217.5t-128 -88.5q-55 0 -55 43q0 51 47 56q39 4 75.5 51t32.5 115q-33 -37 -69 -37q-82 0 -82 108q0 51 37 93t96 42zM549 1386q109 0 108 -165q0 -129 -62.5 -217.5t-127.5 -88.5q-55 0 -55 43q0 51 47 56q39 4 75.5 51t32.5 115 q-33 -37 -69 -37q-82 0 -82 108q0 51 37 93t96 42z" />
<glyph unicode="&#x201e;" horiz-adv-x="706" d="M315 57q0 -127 -62.5 -215t-127.5 -88q-55 0 -55 43q0 51 47 56q39 4 75.5 51t32.5 114q-31 -37 -69 -36q-82 0 -82 108q0 51 35.5 93t95.5 42q110 0 110 -168zM655 57q0 -127 -62.5 -215t-127.5 -88q-55 0 -55 43q0 51 47 56q39 4 75.5 51t32.5 114q-31 -37 -69 -36 q-82 0 -82 108q0 51 35.5 93t95.5 42q110 0 110 -168z" />
<glyph unicode="&#x2022;" horiz-adv-x="681" d="M279 371q-88 0 -142.5 77.5t-54.5 153.5q0 82 21.5 143.5t52 94t74.5 53t78 26t73 5.5q94 0 148.5 -50.5t54.5 -209.5q0 -84 -35 -145.5t-88 -91.5t-99 -43t-83 -13z" />
<glyph unicode="&#x2026;" horiz-adv-x="2048" d="M328 -16q-37 0 -68 32.5t-31 89.5q0 51 35 94.5t92 43.5q98 0 99 -123q0 -57 -32 -97t-95 -40zM1010 -16q-37 0 -68 32.5t-31 89.5q0 51 35 94.5t92 43.5q98 0 99 -123q0 -57 -32 -97t-95 -40zM1692 -16q-37 0 -68 32.5t-31 89.5q0 51 35 94.5t92 43.5q98 0 99 -123 q0 -57 -32 -97t-95 -40z" />
<glyph unicode="&#x202f;" horiz-adv-x="366" />
<glyph unicode="&#x2039;" horiz-adv-x="587" d="M279 207l-203 276q-43 33 -43 92q0 55 47 89l291 288q23 57 98 58q35 0 65.5 -27t30.5 -65q0 -33 -23.5 -57.5t-54.5 -29.5l-247 -260l174 -249q23 0 43 -24t20 -58q0 -39 -30.5 -68t-69.5 -29q-82 1 -98 64z" />
<glyph unicode="&#x203a;" horiz-adv-x="587" d="M350 578l-200 251q-70 12 -74 84q0 39 27.5 68t62.5 29q76 0 106 -64l242 -282q43 -27 43 -89q0 -57 -45 -90l-248 -278q0 -27 -28.5 -45.5t-67.5 -18.5q-41 0 -74 27t-33 66q0 31 20.5 55t45.5 28z" />
<glyph unicode="&#x205f;" horiz-adv-x="458" />
<glyph unicode="&#x20ac;" d="M877 457l-463 -21q31 -145 124 -225t216 -80q227 0 315 121q49 68 102 67q33 0 67 -31.5t34 -62.5q0 -66 -101 -143q-162 -117 -417 -117q-231 0 -373.5 127t-175.5 336l-43 -2q-29 -18 -56 -18q-31 0 -52 24.5t-21 63.5q0 37 19.5 59.5t49.5 22.5q20 0 45 -7l48 2 q4 80 12 119l-41 -2q-25 -16 -64 -16q-33 0 -52 25.5t-19 64.5q0 37 20.5 59.5t52.5 22.5q6 0 48 -10l96 4q76 215 240.5 356t371.5 141q170 0 287 -69q121 -68 121 -172q0 -41 -34 -71t-77 -30q-31 0 -56.5 26t-27.5 62q-27 37 -84 62.5t-125 25.5q-117 0 -226.5 -90 t-172.5 -231l496 20q37 25 65 25q35 0 55.5 -24.5t20.5 -57.5q0 -39 -20.5 -67.5t-55.5 -28.5q-23 0 -47 10l-569 -27q-10 -53 -15 -118l467 20q31 20 64 21q72 0 71 -78q0 -45 -22.5 -70.5t-48.5 -25.5q-20 0 -49 8z" />
<glyph unicode="&#x2122;" horiz-adv-x="1679" d="M1567 1307q0 -8 -6 -33v-520q16 -20 16 -39q0 -39 -35 -59.5t-84 -20.5q-68 0 -67 59q0 2 14 39q2 113 2 338h-4q-14 -29 -56 -102.5t-72 -132t-44 -101.5q-18 -66 -80 -65q-43 0 -59 45q-12 47 -41 108l-63 129q-34 68 -46 95h-4q2 -94 2 -283q6 -12 6 -47 q0 -82 -96 -82q-41 0 -60.5 22.5t-19.5 57.5q0 10 8 26l6 17v545q-6 31 17.5 55t68.5 24q35 0 57.5 -20.5t26.5 -44.5q29 -80 109 -232.5t98 -207.5q18 55 111.5 210.5t124.5 237.5q20 57 82 57q35 0 61.5 -20t26.5 -55zM449 1227v-457l14 -65q0 -41 -18.5 -55.5 t-63.5 -14.5q-43 0 -75 20.5t-32 51.5q0 23 13 47v456l-160 -18q-31 -18 -47 -18q-29 0 -45.5 17t-16.5 42q0 94 103 94l440 45q57 10 64 10q76 0 75 -65q2 -47 -22.5 -62.5t-71.5 -11.5z" />
<glyph unicode="&#xe000;" horiz-adv-x="905" d="M0 905h905v-905h-905v905z" />
<glyph unicode="&#xfb01;" horiz-adv-x="1042" d="M727 748l-328 -54v-565q18 -23 19 -59q0 -80 -119 -80q-47 0 -76.5 20.5t-29.5 55.5q0 10 7 26.5t7 22.5v551l-94 -15q-27 -16 -43 -16q-61 0 -62 102q0 33 17.5 56.5t44.5 23.5q20 0 47 -10l90 14q0 289 69.5 418t233.5 129q182 0 295 -79t113 -154q0 -31 -28 -66 t-89 -35q-37 0 -69 18.5t-32 61.5q0 12 15 23q-51 72 -195 71q-63 0 -92 -80.5t-29 -277.5l324 51q8 2 43 16.5t61 14.5q45 0 78 -25.5t33 -64.5q0 -29 -18 -66v-629q2 -4 10 -14t12 -20.5t4 -18.5q0 -51 -43 -77.5t-94 -26.5q-43 0 -76 26.5t-33 75.5q0 14 27 68v588z" />
<glyph unicode="&#xfb02;" horiz-adv-x="1042" d="M727 750l-328 -50v-569q23 -37 23 -59q0 -82 -127 -82q-43 0 -72.5 22.5t-29.5 61.5q0 12 14 45v555l-92 -15q-29 -14 -49 -14q-57 0 -58 92q0 41 19.5 63.5t44.5 22.5q23 0 47 -8l88 12q0 291 72.5 416t255.5 125q115 0 221 -53q33 12 75 4q45 2 82 -24.5t37 -69.5 q0 -49 -30 -90v-994q29 -18 28 -61q0 -27 -32.5 -58.5t-88 -31.5t-86 26.5t-30.5 73.5q0 10 16 53v607zM399 856l328 49v225q-2 2 -4 6.5t-4 7.5t-5 6l-5 5q-57 53 -166 53q-78 0 -111 -76.5t-33 -275.5z" />
<glyph unicode="&#xfb03;" horiz-adv-x="1566" d="M213 592l-107 -12q-27 -16 -43 -17q-61 0 -61 103q0 33 17.5 56t43.5 23q20 0 48 -10l102 15v45q0 283 61.5 410.5t229.5 127.5q82 0 143.5 -38t61.5 -85q0 -43 -25 -78.5t-61 -35.5q-29 0 -48.5 14t-17.5 33q-18 31 -61 31q-49 0 -71 -76t-22 -277v-43l328 47 q2 287 70.5 415t232.5 128q182 0 295 -79t113 -154q0 -31 -29 -66t-88 -35q-37 0 -68.5 18.5t-31.5 61.5q0 12 12 23q-47 72 -193 71q-61 0 -90.5 -80.5t-29.5 -273.5l323 47q4 0 41 15.5t64 15.5q45 0 77.5 -25.5t32.5 -64.5q0 -29 -18 -66v-629q2 -4 10 -14t12 -20.5 t4 -18.5q0 -51 -43 -77.5t-94 -26.5q-43 0 -75.5 26.5t-32.5 75.5q0 14 26 68v588l-327 -50v-569q18 -23 18 -59q0 -80 -119 -80q-47 0 -76.5 20.5t-29.5 55.5q0 10 7 26.5t7 22.5v555l-328 -47v-498q18 -33 19 -57q0 -78 -109 -78q-113 0 -112 84q0 14 12 39v479z" />
<glyph unicode="&#xfb04;" horiz-adv-x="1566" d="M213 594l-107 -14q-27 -16 -43 -17q-61 0 -61 103q0 33 17.5 56t43.5 23q20 0 48 -10l102 15v45q0 283 61.5 410.5t229.5 127.5q82 0 143.5 -38t61.5 -85q0 -43 -25 -78.5t-61 -35.5q-29 0 -48.5 14t-17.5 33q-18 31 -61 31q-49 0 -71 -76t-22 -275v-45l328 49 q0 291 73 416t255 125q115 0 221 -53q33 12 76 4q45 2 82 -24.5t37 -69.5q0 -49 -31 -90v-994q29 -18 29 -61q0 -27 -33 -58.5t-88.5 -31.5t-86 26.5t-30.5 73.5q0 10 16 53v607l-327 -50v-569q23 -37 22 -59q0 -82 -127 -82q-43 0 -72.5 22.5t-29.5 61.5q0 12 14 45v553 l-328 -49v-498q18 -29 19 -57q0 -78 -109 -78q-113 0 -112 84q0 12 12 41v479zM1251 905v225q-2 2 -4 6.5t-4 7.5t-5 6l-5 5q-57 53 -166 53q-80 0 -111.5 -76.5t-31.5 -275.5z" />
</font>
</defs>
</svg>
